(Sacred) Thomas Tallis - Mass for Four Voices, Motets (Oxford Camerata, Jeremy Summerly) - 1993, FLAC (image+.cue) lossless


Статистика раздачи [Обновить пиров]
Размер:  247 MB   |    Зарегистрирован:  1 год 1 месяц   |    Скачан:  0 раз

Полного источника не было: Никогда

 
   
 
 
 

[Цитировать]

Thomas Tallis - Mass for Four Voices, Motets
Oxford Camerata, Jeremy Summerly
Жанр: Sacred
Страна-производитель диска: Germany
Год издания диска: 1993
Издатель (лейбл): Naxos
Номер по каталогу: 8.550576
Дата записи: 1992
Аудиокодек: FLAC
Тип рипа: image+.cue
Битрейт аудио: lossless
Продолжительность: 1:02:49
Источник: собственный рип
Наличие сканов в содержимом раздачи: да
Треклист:
Motets
1 Loquebantur variis linguis, motet for 7 voices, P. 272 3:47
2 Salvator mundi (I) (also set as "Arise O Lord" and "With all our hearts"), motet for 5 voices, P. 216 3:59
3 O sacrum convivium (also set as "I call and cry to thee" and "O sacred and holy banquet"), motet for 5 voices, P. 210 4:49
4 Audivi vocem, motet for 4 voices, P. 90 3:50
5 Sancte Deus, motet (antiphon) for 4 voices, P. 98 5:28
6 Videte miraculum, motet for 6 voices, P. 293 13:20
7 Te lucis ante terminum (Procul recedant somnia) (I), motet for 5 voices, P. 214 2:01
8 In manus tuas, motet for 5 voices, P. 202 2:42
Mass for 4 voices, P. 31
9 Gloria 6:26
10 Credo 7:17
11 Sanctus 2:46
12 Benedictus 2:48
13 Agnus Dei 3:30
Исполнители:
Oxford Camerata
Jeremy Summerly - conductor

Лог создания рипа

Exact Audio Copy V1.0 beta 3 from 29. August 2011
EAC extraction logfile from 13. September 2013, 19:48
Oxford Camerata dir. Jeremy Summerly / Mass for Four Voices - Motets
Used drive : TSSTcorp CDDVDW Adapter: 0 ID: 0
Read mode : SecureUtilize accurate stream : YesDefeat audio cache : YesMake use of C2 pointers : No
Read offset correction : 6Overread into Lead-In and Lead-Out : NoFill up missing offset samples with silence : YesDelete leading and trailing silent blocks : NoNull samples used in CRC calculations : YesUsed interface : Installed external ASPI interface
Used output format : User Defined EncoderSelected bitrate : 768 kBit/sQuality : HighAdd ID3 tag : NoCommand line compressor : C:\Program Files (x86)\Exact Audio Copy\FLAC\FLAC.EXEAdditional command line options : -6 -V -T "ARTIST=%artist%" -T "TITLE=%title%" -T "ALBUM=%albumtitle%" -T "DATE=%year%" -T "TRACKNUMBER=%tracknr%" -T "GENRE=%genre%" -T "COMMENT=%comment%" -T "BAND=%albuminterpret%" -T "ALBUMARTIST=%albuminterpret%" -T "COMPOSER=%composer%" %haslyrics%--tag-from-file=LYRICS="%lyricsfile%"%haslyrics% -T "DISCNUMBER=%cdnumber%" -T "TOTALDISCS=%totalcds%" -T "TOTALTRACKS=%numtracks%" %hascover%--picture="%coverfile%"%hascover% %source% -o %dest%
TOC of the extracted CD
Track | Start | Length | Start sector | End sector --------------------------------------------------------- 1 | 0:00.00 | 3:47.00 | 0 | 17024 2 | 3:47.00 | 3:59.25 | 17025 | 34974 3 | 7:46.25 | 4:49.10 | 34975 | 56659 4 | 12:35.35 | 3:50.55 | 56660 | 73964 5 | 16:26.15 | 5:28.55 | 73965 | 98619 6 | 21:54.70 | 13:20.02 | 98620 | 158621 7 | 35:14.72 | 2:01.45 | 158622 | 167741 8 | 37:16.42 | 2:42.30 | 167742 | 179921 9 | 39:58.72 | 6:26.63 | 179922 | 208934 10 | 46:25.60 | 7:17.40 | 208935 | 241749 11 | 53:43.25 | 2:46.72 | 241750 | 254271 12 | 56:30.22 | 2:48.23 | 254272 | 266894 13 | 59:18.45 | 3:30.45 | 266895 | 282689
Range status and errors
Selected range
Filename C:\RIP\Tallis - Mass for Four Voices (Summerly).wav
Peak level 100.0 % Extraction speed 3.3 X Range quality 99.9 % Test CRC 9CC65041 Copy CRC 9CC65041 Copy OK
No errors occurred
AccurateRip summary
Track 1 accurately ripped (confidence 5) [166CCB7A] (AR v2)Track 2 accurately ripped (confidence 5) [C7D0C46E] (AR v2)Track 3 accurately ripped (confidence 5) [12399D60] (AR v2)Track 4 accurately ripped (confidence 5) [5AE03EE9] (AR v2)Track 5 accurately ripped (confidence 5) [F53E3F31] (AR v2)Track 6 accurately ripped (confidence 5) [1E1878C1] (AR v2)Track 7 accurately ripped (confidence 5) [853D266D] (AR v2)Track 8 accurately ripped (confidence 5) [7F50058A] (AR v2)Track 9 accurately ripped (confidence 5) [523346BC] (AR v2)Track 10 accurately ripped (confidence 5) [CA3F252C] (AR v2)Track 11 accurately ripped (confidence 5) [EECEE9E6] (AR v2)Track 12 accurately ripped (confidence 5) [E924E562] (AR v2)Track 13 accurately ripped (confidence 5) [B97DEABD] (AR v2)
All tracks accurately ripped
End of status report
==== Log checksum ACE2D3D27A689F171E142D03AD4D2150ACC27D424A3C052D454FDC61CEE6A168 ====
[teatrix.ru].t8029.torrent 
Торрент: Зарегистрирован [ 2015-10-14 02:49 ] · 44C5E2E55B5B9432C2BBF9537B0C290C0A8BA3F3

Скачать .torrent

Скачать

20 KB

Статус: проверено
Скачан: 0 раз
Размер: 247 MB
terms.php



Быстрый ответ

Имя:

      
Для отправки сообщений необходимо включить JavaScript
Показать сообщения:    

Текущее время: 08-Дек 09:02

Часовой пояс: UTC + 3


Вы можете начинать темы
Вы можете отвечать на сообщения
Вы не можете редактировать свои сообщения
Вы не можете удалять свои сообщения
Вы не можете голосовать в опросах
Вы не можете прикреплять файлы к сообщениям
Вы можете скачивать файлы