(Choral) Giuseppe Verdi - Quattro Pezzi Sacri [Four Sacred Pieces] & Igor Stravinsky - Symphony of Psalms [Игорь Стравинский - Симфония псалмов] (Robert Shaw, Atlanta Symphony Orchestra & Chorus) - 1991, FLAC (image+.cue) lossless


Статистика раздачи [Обновить пиров]
Размер:  220 MB   |    Зарегистрирован:  1 год 1 месяц   |    Скачан:  0 раз

Полного источника не было: Никогда

 
   
 
 
 

[Цитировать]

Giuseppe Verdi - Quattro Pezzi Sacri | Igor Stravinsky - Symphony of Psalms
Atlanta Symphony Orchestra & Chorus | Robert Shaw
Жанр: Choral
Страна-производитель диска: USA
Год издания диска: 1991
Издатель (лейбл): Telarc
Номер по каталогу: CD-80254
Дата записи: 1983, 1990
Аудиокодек: FLAC
Тип рипа: image+.cue
Битрейт аудио: lossless
Продолжительность: 60:09
Источник: собственный рип
Наличие сканов в содержимом раздачи: да

Треклист:

Giuseppe Verdi - Quattro Pezzi Sacri [Four Sacred Pieces]
1. I. Ave Maria 4:56
2. II. Stabat Mater 12:25
3. III. Laudi alla Vergine Maria 5:27
4. IV. Te Deum 15:42
Igor Stravinsky - Symphony of Psalms
5. Part I: Exaudi orationem meam 3:13
6. Part II: Expectans expectavi Dominum 6:15
7. Part III: Alleluia 12:05
Исполнители:
Atlanta Symphony Orchestra & Chorus
Robert Shaw - conductor

Лог создания рипа

Exact Audio Copy V1.0 beta 3 from 29. August 2011
EAC extraction logfile from 31. August 2013, 18:53
Atlanta Symphony Orchestra / Verdi - Four Sacred Pieces
Used drive : TSSTcorp CDDVDW Adapter: 0 ID: 0
Read mode : SecureUtilize accurate stream : YesDefeat audio cache : YesMake use of C2 pointers : No
Read offset correction : 6Overread into Lead-In and Lead-Out : NoFill up missing offset samples with silence : YesDelete leading and trailing silent blocks : NoNull samples used in CRC calculations : YesUsed interface : Installed external ASPI interface
Used output format : User Defined EncoderSelected bitrate : 768 kBit/sQuality : HighAdd ID3 tag : NoCommand line compressor : C:\Program Files (x86)\Exact Audio Copy\FLAC\FLAC.EXEAdditional command line options : -6 -V -T "ARTIST=%artist%" -T "TITLE=%title%" -T "ALBUM=%albumtitle%" -T "DATE=%year%" -T "TRACKNUMBER=%tracknr%" -T "GENRE=%genre%" -T "COMMENT=%comment%" -T "BAND=%albuminterpret%" -T "ALBUMARTIST=%albuminterpret%" -T "COMPOSER=%composer%" %haslyrics%--tag-from-file=LYRICS="%lyricsfile%"%haslyrics% -T "DISCNUMBER=%cdnumber%" -T "TOTALDISCS=%totalcds%" -T "TOTALTRACKS=%numtracks%" %hascover%--picture="%coverfile%"%hascover% %source% -o %dest%
TOC of the extracted CD
Track | Start | Length | Start sector | End sector --------------------------------------------------------- 1 | 0:00.00 | 4:57.62 | 0 | 22336 2 | 4:57.62 | 12:26.63 | 22337 | 78349 3 | 17:24.50 | 5:28.50 | 78350 | 102999 4 | 22:53.25 | 15:44.05 | 103000 | 173804 5 | 38:37.30 | 3:12.37 | 173805 | 188241 6 | 41:49.67 | 6:14.55 | 188242 | 216346 7 | 48:04.47 | 12:04.53 | 216347 | 270699
Range status and errors
Selected range
Filename C:\RIP\Verdi - Four Sacred Pieces.wav
Peak level 100.0 % Extraction speed 3.0 X Range quality 100.0 % Test CRC 5D0D8DF4 Copy CRC 5D0D8DF4 Copy OK
No errors occurred
AccurateRip summary
Track 1 accurately ripped (confidence 3) [288CBBE7] (AR v2)Track 2 accurately ripped (confidence 2) [5B72AD3D] (AR v2)Track 3 accurately ripped (confidence 3) [A355E92D] (AR v2)Track 4 accurately ripped (confidence 3) [6038010D] (AR v2)Track 5 accurately ripped (confidence 3) [A3243889] (AR v2)Track 6 accurately ripped (confidence 3) [249390E5] (AR v2)Track 7 accurately ripped (confidence 2) [518A0020] (AR v2)
All tracks accurately ripped
End of status report
==== Log checksum 33B8D29C221326CA0747CEABE62109AEF18F373D26B2A80B353F4BB3D12162E4 ====
[teatrix.ru].t8030.torrent 
Торрент: Зарегистрирован [ 2015-10-14 02:49 ] · EC10CC5E0B71EEC225521BA868A9FC41C2F62A27

Скачать .torrent

Скачать

19 KB

Статус: проверено
Скачан: 0 раз
Размер: 220 MB
terms.php



Быстрый ответ

Имя:

      
Для отправки сообщений необходимо включить JavaScript
Показать сообщения:    

Текущее время: 03-Дек 05:23

Часовой пояс: UTC + 3


Вы можете начинать темы
Вы можете отвечать на сообщения
Вы не можете редактировать свои сообщения
Вы не можете удалять свои сообщения
Вы не можете голосовать в опросах
Вы не можете прикреплять файлы к сообщениям
Вы можете скачивать файлы