(Sacred) Claudio Monteverdi - Vespro della Beata Vergine, Venetian Vesper Music (Philpot, Kirkby, Evera, Tubb, Bonner etc, Taverner Consort & Taverner Players, Andrew Parrott) {2CD} - 1999, FLAC (image+.cue) lossless


Статистика раздачи [Обновить пиров]
Размер:  605 MB   |    Зарегистрирован:  1 год 1 месяц   |    Скачан:  0 раз

Полного источника не было: Никогда

 
   
 
 
 

[Цитировать]

Claudio Monteverdi - Vespro della Beata Vergine & Venetian Vesper Music
Taverner Consort & Taverner Players, Andrew Parrott
Жанр: Sacred
Страна-производитель диска: EU
Год издания диска: 1999
Издатель (лейбл): Virgin Classics
Номер по каталогу: 7243 5 61662 2 6
Дата записи: 1983-1984
Аудиокодек: FLAC
Тип рипа: image+.cue
Битрейт аудио: lossless
Продолжительность: 2:27:06
Источник: собственный рип
Наличие сканов в содержимом раздачи: да
Треклист:
CD1
Vespro della beata Vergine (1610)
1. Versiculus (Canto gregoriano) - Deus in adiutorium 0:13
2. Responsorium - Domine ad adiuvandum me festina 1:53
3. Antiphona I (Canto gregoriano) - Assumpta est Maria 0:29
4. Psalmus I - Psalmus 109: Dixit Dominus 8:07
5. Concerto - nigra sum 3:45
6. Antiphona II (Canto gregoriano) Maria Virgo assumpta est 0:42
7. Psalmus II - Psalmus 112:Laudate pueri 6:04
8. Concerto - Pulchra es 3:37
9. Antiphona III (Canto gregoriano) In odorem unguentorum tuorum currimus 0:33
10. Psalmus III - Psalmus 121: Laetatus sum 6:53
11. Sonata a 2 per violine e violone 4:20
12. Antiphona IV (Canto gregoriano) Benedicta filia tua Domino 0:38
13. Psalmus IV - Psalmus 126: Nisi Dominus 4:50
14. Concerto - Audi coelum 7:30
15. Antiphona V (Canto gregoriano) Pulchra es et decora, filia Hierusalem 0:37
16. Psalmus V - Psalmus 147:Lauda Jerusalem Dominum 4:48
17. Sonata 1 3 per violino, cornetto e violone 3:17
18. Capitulum (Canto gregoriano) - In omnibus requeim quaesivi 0:46
19. Hymnus - Ave maris stella 8:08
20. Versus et responsorium (Canto gregoriano) - Exaltata est sancta Dei Genitrix 0:31
21. Antiphona VI (Canto gregoriano) - Hodie Maria Virgo caelos ascendit 0:35
22. Sonata sopra Sancta Maria 6:21
CD2
1. Magnificat 17:20
2. Oratio (Canto gregoriano) - Dominus vobiscum 1:09
3. Versus (Canto gregoriano) Dominus vobiscum/Benedicamus Domino 0:24
4. Concerto - Duo Seraphim 4:53
5. Antiphona Beatae Mariae Virginis - Salve Regine 5:14
6. Versus et responsorium (Canto gregoriano) - Ora pro nobis 0:22
7. Oratio (Canto gregoriano) - Domine vobiscum 1:01
8. Conclusio (Canto gregoriano) - Divinum auxilium maneat semper nobiscum 0:23
Venetian Vesper Music from "Selva morale e spirituale", 1640
9. Psalmus 109: Dixit Dominus (Secondo) 8:19
10. Psalmus 110: Confitebor tibi Domine (secondo) 6:22
11. Psalmus 111: Beatus vir (primo) 8:56
12. Psalmus 112: Laudate pueri (secondo) 7:48
13. Psalmus 116: Laudate Dominum (primo) 4:45
14. Hymnus: Salve Regina 5:46
Исполнители:
Margaret Philpot - mezzo-soprano
Emily Van Evera, Emma Kirkby, Evelyn Tubb, Tessa Bonner - sopranos
Andrew King, Charles Daniels, John Dudley, Joseph Cornwell, Nigel Rogers, Peter Long, Rogers Covey-Crump - tenors
Stephen Charlesworth - baritone
David Thomas, Richard Savage, Richard Wistreich, Simon Grant - basses
Taverner Consort & Taverner Players
Andrew Parrott - conductor

Лог создания рипа

Лог создания рипа CD1

Exact Audio Copy V1.0 beta 3 from 29. August 2011
EAC extraction logfile from 29. August 2013, 14:55
Tavener Consort, Choir & Players, dir. A.Parrott / Vespro della Beata Vergine 1610 (CD1)
Used drive : TSSTcorp CDDVDW Adapter: 0 ID: 0
Read mode : Secure
Utilize accurate stream : Yes
Defeat audio cache : Yes
Make use of C2 pointers : No
Read offset correction : 6
Overread into Lead-In and Lead-Out : No
Fill up missing offset samples with silence : Yes
Delete leading and trailing silent blocks : No
Null samples used in CRC calculations : Yes
Used interface : Installed external ASPI interface
Used output format : User Defined Encoder
Selected bitrate : 768 kBit/s
Quality : High
Add ID3 tag : No
Command line compressor : C:\Program Files (x86)\Exact Audio Copy\FLAC\FLAC.EXE
Additional command line options : -6 -V -T "ARTIST=%artist%" -T "TITLE=%title%" -T "ALBUM=%albumtitle%" -T "DATE=%year%" -T "TRACKNUMBER=%tracknr%" -T "GENRE=%genre%" -T "COMMENT=%comment%" -T "BAND=%albuminterpret%" -T "ALBUMARTIST=%albuminterpret%" -T "COMPOSER=%composer%" %haslyrics%--tag-from-file=LYRICS="%lyricsfile%"%haslyrics% -T "DISCNUMBER=%cdnumber%" -T "TOTALDISCS=%totalcds%" -T "TOTALTRACKS=%numtracks%" %hascover%--picture="%coverfile%"%hascover% %source% -o %dest%
TOC of the extracted CD
Track | Start | Length | Start sector | End sector
---------------------------------------------------------
1 | 0:00.32 | 0:13.58 | 32 | 1064
2 | 0:14.15 | 1:53.72 | 1065 | 9611
3 | 2:08.12 | 0:29.28 | 9612 | 11814
4 | 2:37.40 | 8:07.52 | 11815 | 48391
5 | 10:45.17 | 3:45.24 | 48392 | 65290
6 | 14:30.41 | 0:42.31 | 65291 | 68471
7 | 15:12.72 | 6:04.29 | 68472 | 95800
8 | 21:17.26 | 3:37.29 | 95801 | 112104
9 | 24:54.55 | 0:33.30 | 112105 | 114609
10 | 25:28.10 | 6:54.05 | 114610 | 145664
11 | 32:22.15 | 4:20.72 | 145665 | 165236
12 | 36:43.12 | 0:38.33 | 165237 | 168119
13 | 37:21.45 | 4:50.05 | 168120 | 189874
14 | 42:11.50 | 7:31.52 | 189875 | 223751
15 | 49:43.27 | 0:37.16 | 223752 | 226542
16 | 50:20.43 | 4:48.54 | 226543 | 248196
17 | 55:09.22 | 3:17.38 | 248197 | 263009
18 | 58:26.60 | 0:46.51 | 263010 | 266510
19 | 59:13.36 | 8:08.32 | 266511 | 303142
20 | 67:21.68 | 0:31.30 | 303143 | 305497
21 | 67:53.23 | 0:35.38 | 305498 | 308160
22 | 68:28.61 | 6:22.18 | 308161 | 336828
Range status and errors
Selected range
Filename C:\RIP\Monteverdi - Vespro della Beata Vergine (Parrott) CD1.wav
Peak level 91.5 %
Extraction speed 3.4 X
Range quality 100.0 %
Test CRC E0D8620E
Copy CRC E0D8620E
Copy OK
No errors occurred
AccurateRip summary
Track 1 accurately ripped (confidence 12) [9031C666] (AR v2)
Track 2 accurately ripped (confidence 12) [B1C1CBF0] (AR v2)
Track 3 accurately ripped (confidence 12) [1EF59FB7] (AR v2)
Track 4 accurately ripped (confidence 12) [DB000FB5] (AR v2)
Track 5 accurately ripped (confidence 12) [55618636] (AR v2)
Track 6 accurately ripped (confidence 12) [9251E5FA] (AR v2)
Track 7 accurately ripped (confidence 12) [1DF56B3E] (AR v2)
Track 8 accurately ripped (confidence 12) [365AD50B] (AR v2)
Track 9 accurately ripped (confidence 12) [5BEFC84C] (AR v2)
Track 10 accurately ripped (confidence 12) [63CCF48B] (AR v2)
Track 11 accurately ripped (confidence 12) [C01D1480] (AR v2)
Track 12 accurately ripped (confidence 12) [EF15FBDF] (AR v2)
Track 13 accurately ripped (confidence 12) [C86FDDE5] (AR v2)
Track 14 accurately ripped (confidence 12) [EF6F9C38] (AR v2)
Track 15 accurately ripped (confidence 12) [D9E0153B] (AR v2)
Track 16 accurately ripped (confidence 12) [13DE15E8] (AR v2)
Track 17 accurately ripped (confidence 12) [43847F1B] (AR v2)
Track 18 accurately ripped (confidence 12) [D33E7C12] (AR v2)
Track 19 accurately ripped (confidence 11) [389587BC] (AR v2)
Track 20 accurately ripped (confidence 11) [4AB2F7DE] (AR v2)
Track 21 accurately ripped (confidence 11) [A2810158] (AR v2)
Track 22 accurately ripped (confidence 11) [56A7ADD7] (AR v2)
All tracks accurately ripped
End of status report
==== Log checksum 81A6D56914C15E5E3F5582F722F36005BA7DB1EE5376F701BEF780EB4743EACD ====

Лог создания рипа CD2

Exact Audio Copy V1.0 beta 3 from 29. August 2011
EAC extraction logfile from 29. August 2013, 19:42
Tavener Consort, Choir & Players, dir. A.Parrott / Vespro della Beata Vergine 1610 (CD2)
Used drive : TSSTcorp CDDVDW Adapter: 0 ID: 0
Read mode : SecureUtilize accurate stream : YesDefeat audio cache : YesMake use of C2 pointers : No
Read offset correction : 6Overread into Lead-In and Lead-Out : NoFill up missing offset samples with silence : YesDelete leading and trailing silent blocks : NoNull samples used in CRC calculations : YesUsed interface : Installed external ASPI interface
Used output format : User Defined EncoderSelected bitrate : 768 kBit/sQuality : HighAdd ID3 tag : NoCommand line compressor : C:\Program Files (x86)\Exact Audio Copy\FLAC\FLAC.EXEAdditional command line options : -6 -V -T "ARTIST=%artist%" -T "TITLE=%title%" -T "ALBUM=%albumtitle%" -T "DATE=%year%" -T "TRACKNUMBER=%tracknr%" -T "GENRE=%genre%" -T "COMMENT=%comment%" -T "BAND=%albuminterpret%" -T "ALBUMARTIST=%albuminterpret%" -T "COMPOSER=%composer%" %haslyrics%--tag-from-file=LYRICS="%lyricsfile%"%haslyrics% -T "DISCNUMBER=%cdnumber%" -T "TOTALDISCS=%totalcds%" -T "TOTALTRACKS=%numtracks%" %hascover%--picture="%coverfile%"%hascover% %source% -o %dest%
TOC of the extracted CD
Track | Start | Length | Start sector | End sector --------------------------------------------------------- 1 | 0:00.00 | 17:20.63 | 0 | 78062 2 | 17:20.63 | 1:09.08 | 78063 | 83245 3 | 18:29.71 | 0:24.35 | 83246 | 85080 4 | 18:54.31 | 4:53.18 | 85081 | 107073 5 | 23:47.49 | 5:14.43 | 107074 | 130666 6 | 29:02.17 | 0:22.52 | 130667 | 132368 7 | 29:24.69 | 1:01.18 | 132369 | 136961 8 | 30:26.12 | 0:24.08 | 136962 | 138769 9 | 30:50.20 | 8:20.08 | 138770 | 176277 10 | 39:10.28 | 6:23.55 | 176278 | 205057 11 | 45:34.08 | 8:58.18 | 205058 | 245425 12 | 54:32.26 | 7:50.41 | 245426 | 280716 13 | 62:22.67 | 4:45.55 | 280717 | 302146 14 | 67:08.47 | 5:46.64 | 302147 | 328160
Range status and errors
Selected range
Filename C:\RIP\Monteverdi - Vespro della Beata Vergine (Parrott) CD2.wav
Peak level 94.3 % Extraction speed 3.2 X Range quality 100.0 % Test CRC 7845460A Copy CRC 7845460A Copy OK
No errors occurred
AccurateRip summary
Track 1 accurately ripped (confidence 12) [212E0113] (AR v2)Track 2 accurately ripped (confidence 12) [89C0D79B] (AR v2)Track 3 accurately ripped (confidence 12) [687F8849] (AR v2)Track 4 accurately ripped (confidence 12) [494710B5] (AR v2)Track 5 accurately ripped (confidence 12) [E90FD895] (AR v2)Track 6 accurately ripped (confidence 12) [F5A5A0DF] (AR v2)Track 7 accurately ripped (confidence 12) [520D054A] (AR v2)Track 8 accurately ripped (confidence 12) [48C2FCD1] (AR v2)Track 9 accurately ripped (confidence 12) [6297EBA5] (AR v2)Track 10 accurately ripped (confidence 12) [E0319F17] (AR v2)Track 11 accurately ripped (confidence 12) [6F75303F] (AR v2)Track 12 accurately ripped (confidence 12) [4AD1FC11] (AR v2)Track 13 accurately ripped (confidence 12) [8FF132ED] (AR v2)Track 14 accurately ripped (confidence 12) [1851E673] (AR v2)
All tracks accurately ripped
End of status report
==== Log checksum 365AD466022061408798C6A7196D1555A5A2E2F211DD251C3C3C19B579C77E2A ====
Сэмплы на Youtube:Monteverdi - Vespro della Beata Vergine (excerpts)
Monteverdi - Psalm 111: "Beatus vir" a 6
[teatrix.ru].t8031.torrent 
Торрент: Зарегистрирован [ 2015-10-14 02:49 ] · 93080690FC1E994A3CB7EC6BBDAEADC166B4A066

Скачать .torrent

Скачать

13 KB

Статус: проверено
Скачан: 0 раз
Размер: 605 MB
terms.php



Быстрый ответ

Имя:

      
Для отправки сообщений необходимо включить JavaScript
Показать сообщения:    

Текущее время: 10-Дек 17:44

Часовой пояс: UTC + 3


Вы можете начинать темы
Вы можете отвечать на сообщения
Вы не можете редактировать свои сообщения
Вы не можете удалять свои сообщения
Вы не можете голосовать в опросах
Вы не можете прикреплять файлы к сообщениям
Вы можете скачивать файлы