(Classical) Моцарт - Реквием / Mozart - Requiem d-moll, KV.626 - DVD to FLAC - Karl Bohm, Gundula Janowitz, Christa Ludwig, Peter Schreier, Walter Berry - 1971, 2005, FLAC (image+.cue) lossless


Статистика раздачи [Обновить пиров]
Размер:  330 MB   |    Зарегистрирован:  1 год 1 месяц   |    Скачан:  0 раз

Полного источника не было: Никогда

 
   
 
 
 

[Цитировать]

Mozart - REQUIEM d-moll, KV.626 - DVD to FLAC
Жанр: Classical
Страна-производитель диска: Germany
Год издания диска: 2005
Издатель (лейбл): Deutsche Grammophon
Дата записи: 1971
Аудиокодек: FLAC
Тип рипа: image+.cue
Битрейт аудио: lossless
Продолжительность: 1:03:53
Источник: DVD9
Наличие сканов в содержимом раздачи: да
Треклист:
1. I. INTROITUS: Requiem
2. II. KYRIE
3. III. SEQUENZ: Dies irae
4. Tuba Mirum
5. Rex Tremendae
6. Recordare
7. Confutatis
8. Lacrimosa
9. IV. OFFERTORIUM: Domine Jesu
10. Hostias
11. V. SANCTUS
12. VI. BENEDICTUS
13. VII. AGNUS DEI
14. VIII. COMMUNIO: Lux Aeterna
Исполнители:
Gundula Janowitz, soprano
Christa Ludwig, contralto
Peter Schreier, tenor
Walter Berry, bass
Chor des Wien Staatsoper
Wiener Symphoniker
Karl Bohm
Аудио версия этого DVD никогда не издавалась, а запись то восхитительная! Потому я извлек из DVD PCM дорогу, и конвертировал её уже в FLAC. Плюс сделал *.CUE. Повторюсь, это восхитительный "Реквием"!

Содержание индексной карты (.CUE)

REM GENRE ClassicalREM DATE 1971PERFORMER "Wolfgang Amadeus Mozart "TITLE "Mozart - REQUIEM d-moll, KV 626 - DVD to FLAC (Karl Bohm, Wiener Philharmonike, Wiener Staatsopernchor, Gundula Janowitz, Christa Ludwig, Peter Schreier, Walter Berry)"FILE "Mozart - Requiem d-moll, KV.626 - Karl Bohm - DVD.flac" WAVE TRACK 01 AUDIO TITLE "1. I. INTROITUS: Requiem" PERFORMER "Wolfgang Amadeus Mozart" INDEX 01 00:50:00 TRACK 02 AUDIO TITLE "2. II. KYRIE" PERFORMER "Wolfgang Amadeus Mozart" INDEX 01 06:42:00 TRACK 03 AUDIO TITLE "3. III. SEQUENZ: Dies irae" PERFORMER "Wolfgang Amadeus Mozart" INDEX 01 09:54:00 TRACK 04 AUDIO TITLE "4. Tuba Mirum" PERFORMER "Wolfgang Amadeus Mozart" INDEX 01 11:58:00 TRACK 05 AUDIO TITLE "5. Rex Tremendae" PERFORMER "Wolfgang Amadeus Mozart" INDEX 01 16:00:00 TRACK 06 AUDIO TITLE "6. Recordare" PERFORMER "Wolfgang Amadeus Mozart" INDEX 01 19:20:00 TRACK 07 AUDIO TITLE "7. Confutatis" PERFORMER "Wolfgang Amadeus Mozart" INDEX 01 25:33:00 TRACK 08 AUDIO TITLE "8. Lacrimosa" PERFORMER "Wolfgang Amadeus Mozart" INDEX 01 29:12:00 TRACK 09 AUDIO TITLE "9. IV. OFFERTORIUM: Domine Jesu" PERFORMER "Wolfgang Amadeus Mozart" INDEX 01 34:06:00 TRACK 10 AUDIO TITLE "10. Hostias" PERFORMER "Wolfgang Amadeus Mozart" INDEX 01 38:21:00 TRACK 11 AUDIO TITLE "11. V. SANCTUS" PERFORMER "Wolfgang Amadeus Mozart" INDEX 01 44:09:00 TRACK 12 AUDIO TITLE "12. VI. BENEDICTUS" PERFORMER "Wolfgang Amadeus Mozart" INDEX 01 46:09:00 TRACK 13 AUDIO TITLE "13. VII. AGNUS DEI" PERFORMER "Wolfgang Amadeus Mozart" INDEX 01 52:10:00 TRACK 14 AUDIO TITLE "14. VIII. COMMUNIO: Lux Aeterna" PERFORMER "Wolfgang Amadeus Mozart" INDEX 01 56:49:00

Лог проверки качества

AUDIOCHECKER v2.0 beta (build 457) - by Dester - opdester@freemail.hu~~~~~~~~~~~~~~~~~~~~~~~~~~~~~~~~~~-=== DO NOT EDIT THIS FILE! ===-
Path: ...\2 Mozart - REQUIEM d-moll, KV.626 - DVD to FLAC (Karl Bohm, Gundula Janowitz, Christa Ludwig, Peter Schreier, Walter Berry, 1971, 2005 - FLAC)
1 -=- Mozart - Requiem d-moll, KV.626 - Karl Bohm - DVD.flac -=- CDDA (100%)
148260212

Спектры

[teatrix.ru].t8032.torrent 
Торрент: Зарегистрирован [ 2015-10-14 02:49 ] · BBFE7D529E90550ABEA6FE0C17CE892AA637C20E

Скачать .torrent

Скачать

15 KB

Статус: проверено
Скачан: 0 раз
Размер: 330 MB
terms.php



Быстрый ответ

Имя:

      
Для отправки сообщений необходимо включить JavaScript
Показать сообщения:    

Текущее время: 09-Дек 22:24

Часовой пояс: UTC + 3


Вы можете начинать темы
Вы можете отвечать на сообщения
Вы не можете редактировать свои сообщения
Вы не можете удалять свои сообщения
Вы не можете голосовать в опросах
Вы не можете прикреплять файлы к сообщениям
Вы можете скачивать файлы