(Contemporary) Theatre of Voices, Paul Hillier - Stories (Berio, Cage, Mac Low, Marsh, Frank, Berberian) - 2011, FLAC (image+.cue) lossless


Статистика раздачи [Обновить пиров]
Размер:  255 MB   |    Зарегистрирован:  1 год 1 месяц   |    Скачан:  0 раз

Полного источника не было: Никогда

 
   
 
 
 

[Цитировать]

Theatre of Voices, Paul Hillier - Stories: Berio And Friends
Жанр: Contemporary
Страна-производитель диска: Austria
Год издания диска: 2011
Издатель (лейбл): Harmonia Mundi USA
Номер по каталогу: HMU 807527
Дата записи: 2011
Аудиокодек: FLAC
Тип рипа: image+.cue
Битрейт аудио: lossless
Продолжительность: 01:06:38
Источник: скачано с avaxhome
Наличие сканов в содержимом раздачи: нет
Треклист:
1 Luciano Berio - A-Ronne 27:17
2 John Cage - Story 4:54
3 Jackson Mac Low - Young Turtle Assymetries 3:18
4 Roger Marsh - Not A Soul But Ourselves 14:57
5 Sheldon Frank - As I Was Saying 4:52
6 Cathy Berberian - Stripsody 11:20
Исполнители:
Theater of Voices - Paul Hillier

Лог создания рипа

Exact Audio Copy V1.0 beta 3 from 29. August 2011
EAC extraction logfile from 16. April 2013, 7:57
Theatre of Voices, Paul Hillier / Stories: Berio and Friends
Used drive : PIONEER BD-RW BDR-206 Adapter: 0 ID: 2
Read mode : SecureUtilize accurate stream : YesDefeat audio cache : YesMake use of C2 pointers : No
Read offset correction : 667Overread into Lead-In and Lead-Out : NoFill up missing offset samples with silence : YesDelete leading and trailing silent blocks : NoNull samples used in CRC calculations : YesUsed interface : Native Win32 interface for Win NT & 2000
Used output format : User Defined EncoderSelected bitrate : 1024 kBit/sQuality : HighAdd ID3 tag : YesCommand line compressor : C:\Program Files\FLAC\flac.exeAdditional command line options : -5 -T "Artist=%artist%" -T "Title=%title%" -T "Album=%albumtitle%" -T "Date=%year%" -T "Tracknumber=%tracknr%" -T "Genre=%genre%" %source% -o %dest%
TOC of the extracted CD
Track | Start | Length | Start sector | End sector --------------------------------------------------------- 1 | 0:00.00 | 27:17.28 | 0 | 122802 2 | 27:17.28 | 4:53.45 | 122803 | 144822 3 | 32:10.73 | 3:17.60 | 144823 | 159657 4 | 35:28.58 | 14:56.59 | 159658 | 226916 5 | 50:25.42 | 4:52.02 | 226917 | 248818 6 | 55:17.44 | 11:19.74 | 248819 | 299817
Range status and errors
Selected range
Filename F:\=== VINYL RIPS ===\=== EAC===\X FRESH RIP\Theatre of Voices, Paul Hillier - Stories- Berio and Friends.wav
Peak level 98.1 % Extraction speed 8.0 X Range quality 100.0 % Copy CRC A3F0B540 Copy OK
No errors occurred
AccurateRip summary
Track 1 accurately ripped (confidence 2) [FC76362B] (AR v2)Track 2 accurately ripped (confidence 2) [985F7857] (AR v2)Track 3 accurately ripped (confidence 2) [D217D6B1] (AR v2)Track 4 accurately ripped (confidence 2) [E058A155] (AR v2)Track 5 accurately ripped (confidence 2) [21128C18] (AR v2)Track 6 accurately ripped (confidence 2) [6111774A] (AR v2)
All tracks accurately ripped
End of status report
---- CUETools DB Plugin V2.1.3
[CTDB TOCID: ceD18v0ZrSHsDzHqpl3mSoFoWJY-] found, Submit result: ceD18v0ZrSHsDzHqpl3mSoFoWJY- has been confirmed[118340b4] (3/3) Accurately ripped
==== Log checksum E3BDEFA6FF2775CC86C1E08DDDD33B26587CC800FC3C3CF22786298B5E51E0D4 ====

Лог проверки качества

AUDIOCHECKER v2.0 beta (build 457) - by Dester - opdester@freemail.hu~~~~~~~~~~~~~~~~~~~~~~~~~~~~~~~~~~-=== DO NOT EDIT THIS FILE! ===-
Path: ...\CD
1 -=- Theatre of Voices, Paul Hillier - Stories- Berio and Friends.flac -=- CDDA (100%)
204792772
[teatrix.ru].t8033.torrent 
Торрент: Зарегистрирован [ 2015-10-14 02:49 ] · 49C76549939558457D9CB2E694F71B172CE7E284

Скачать .torrent

Скачать

21 KB

Статус: проверено
Скачан: 0 раз
Размер: 255 MB
terms.php



Быстрый ответ

Имя:

      
Для отправки сообщений необходимо включить JavaScript
Показать сообщения:    

Текущее время: 03-Дек 05:26

Часовой пояс: UTC + 3


Вы можете начинать темы
Вы можете отвечать на сообщения
Вы не можете редактировать свои сообщения
Вы не можете удалять свои сообщения
Вы не можете голосовать в опросах
Вы не можете прикреплять файлы к сообщениям
Вы можете скачивать файлы