(Chorus, Opera) Grand & Glorious: Great Operatic Choruses [Handel, Purcell, Мусоргский, Bizet, Beethoven, Wagner, Verdi, Donizetti, Mascagni] (Atlanta Symphony Orchestra And Chorus, Robert Shaw) - 1994, FLAC (image+.cue) lossless


Статистика раздачи [Обновить пиров]
Размер:  293 MB   |    Зарегистрирован:  1 год 1 месяц   |    Скачан:  0 раз

Полного источника не было: Никогда

 
   
 
 
 

[Цитировать]

Grand & Glorious: Great Operatic Choruses
Atlanta Symphony Orchestra And Chorus, Robert Shaw
Жанр: Chorus, Opera
Страна-производитель диска: USA
Год издания диска: 1994
Издатель (лейбл): Telarc
Номер по каталогу: CD-80333
Дата записи: 1993
Аудиокодек: FLAC
Тип рипа: image+.cue
Битрейт аудио: lossless
Продолжительность: 68:44
Источник: собственный рип
Наличие сканов в содержимом раздачи: да
Треклист:
1. Handel: Happy We! From Acis and Galatea 1:54
2. Purcell: When I am Laid in Earth; With Drooping Wings, from Dido and Aeneas 7:13
3. Moussorgsky: Zhivi i zdravstvui (Coronation Scene), from Boris Godunov 7:21
4. Bizet: Les voici, from Carmen 4:11
5. Beethoven: O welche Lust! (Prisoners' Chorus), from Fidelio 8:00
6. Wagner: Wach'auf! From Die Meistersing von Nurnburg 2:41
7. Bridal Chorus from Lohengrin 4:47
8. Begluckt darf nun dich (Pilgrims' Chorus), from Tannhauser 4:58
9. Freudig begrussen wir (Entrance of the Guests), from Tannhauser 6:58
10. Verdi: Vedi! Le fosche notturne spoglie (Anvil Chorus), from II Trovatore 2:52
11. Donizetti: Que interminable andirivieni! (Servants' Chorus), from Don Pasquale 4:03
12. Verdi: Zitti, Zitti (Conspiritors' Chorus), from Rigoletto 1:54
13. Va, Pensiero (Chorus of Hebrew Slaves), from Nabucco 5:11
14. Mascagni: Regina Coeli, from Cavalleria Rusticana 6:17
Исполнители:
Atlanta Symphony Orchestra And Chorus
Robert Shaw - conductor

Лог создания рипа

Exact Audio Copy V1.0 beta 3 from 29. August 2011
EAC extraction logfile from 7. September 2013, 13:22
Atlanta Symphony Orchestra & Choruses / Grand and Glorious
Used drive : TSSTcorp CDDVDW Adapter: 0 ID: 0
Read mode : SecureUtilize accurate stream : YesDefeat audio cache : YesMake use of C2 pointers : No
Read offset correction : 6Overread into Lead-In and Lead-Out : NoFill up missing offset samples with silence : YesDelete leading and trailing silent blocks : NoNull samples used in CRC calculations : YesUsed interface : Installed external ASPI interface
Used output format : User Defined EncoderSelected bitrate : 768 kBit/sQuality : HighAdd ID3 tag : NoCommand line compressor : C:\Program Files (x86)\Exact Audio Copy\FLAC\FLAC.EXEAdditional command line options : -6 -V -T "ARTIST=%artist%" -T "TITLE=%title%" -T "ALBUM=%albumtitle%" -T "DATE=%year%" -T "TRACKNUMBER=%tracknr%" -T "GENRE=%genre%" -T "COMMENT=%comment%" -T "BAND=%albuminterpret%" -T "ALBUMARTIST=%albuminterpret%" -T "COMPOSER=%composer%" %haslyrics%--tag-from-file=LYRICS="%lyricsfile%"%haslyrics% -T "DISCNUMBER=%cdnumber%" -T "TOTALDISCS=%totalcds%" -T "TOTALTRACKS=%numtracks%" %hascover%--picture="%coverfile%"%hascover% %source% -o %dest%
TOC of the extracted CD
Track | Start | Length | Start sector | End sector --------------------------------------------------------- 1 | 0:00.00 | 1:55.68 | 0 | 8692 2 | 1:55.68 | 7:14.65 | 8693 | 41307 3 | 9:10.58 | 7:22.70 | 41308 | 74527 4 | 16:33.53 | 4:13.20 | 74528 | 93522 5 | 20:46.73 | 8:01.70 | 93523 | 129667 6 | 28:48.68 | 2:42.52 | 129668 | 141869 7 | 31:31.45 | 4:48.65 | 141870 | 163534 8 | 36:20.35 | 5:00.28 | 163535 | 186062 9 | 41:20.63 | 6:59.52 | 186063 | 217539 10 | 48:20.40 | 2:54.10 | 217540 | 230599 11 | 51:14.50 | 4:04.53 | 230600 | 248952 12 | 55:19.28 | 1:55.72 | 248953 | 257649 13 | 57:15.25 | 5:13.23 | 257650 | 281147 14 | 62:28.48 | 6:15.52 | 281148 | 309324
Range status and errors
Selected range
Filename C:\RIP\Atlanta SO - Grand and Glorious.wav
Peak level 100.0 % Extraction speed 3.4 X Range quality 100.0 % Test CRC 45A44DE2 Copy CRC 45A44DE2 Copy OK
No errors occurred
AccurateRip summary
Track 1 accurately ripped (confidence 2) [85F27994] (AR v2)Track 2 accurately ripped (confidence 2) [1B4E89FB] (AR v2)Track 3 accurately ripped (confidence 2) [4B025D71] (AR v2)Track 4 accurately ripped (confidence 2) [738FB656] (AR v2)Track 5 accurately ripped (confidence 2) [AE2BE997] (AR v2)Track 6 accurately ripped (confidence 2) [0B2C5DEA] (AR v2)Track 7 accurately ripped (confidence 2) [BE6EA8FF] (AR v2)Track 8 accurately ripped (confidence 2) [5C34C25B] (AR v2)Track 9 accurately ripped (confidence 2) [09B9F23C] (AR v2)Track 10 accurately ripped (confidence 2) [1AD456B6] (AR v2)Track 11 accurately ripped (confidence 2) [344AB893] (AR v2)Track 12 accurately ripped (confidence 2) [4B1F50FE] (AR v2)Track 13 accurately ripped (confidence 2) [BFCD97F1] (AR v2)Track 14 accurately ripped (confidence 2) [2903CB72] (AR v2)
All tracks accurately ripped
End of status report
==== Log checksum FCEC93C12A0B4FCFBE623666B2425F41DC2080A3B7329B8F21AE01604E095E3E ====
[teatrix.ru].t8034.torrent 
Торрент: Зарегистрирован [ 2015-10-14 02:49 ] · 0EE168F6972C25BAD96BE8BF345BDB6A6B597ADB

Скачать .torrent

Скачать

13 KB

Статус: проверено
Скачан: 0 раз
Размер: 293 MB
terms.php



Быстрый ответ

Имя:

      
Для отправки сообщений необходимо включить JavaScript
Показать сообщения:    

Текущее время: 03-Дек 07:41

Часовой пояс: UTC + 3


Вы можете начинать темы
Вы можете отвечать на сообщения
Вы не можете редактировать свои сообщения
Вы не можете удалять свои сообщения
Вы не можете голосовать в опросах
Вы не можете прикреплять файлы к сообщениям
Вы можете скачивать файлы