(Classical, Choral, Avant-Garde) Terje Rypdal - Melodic Warrior / The Hilliard Ensemble (ECM) - 2013, FLAC (tracks) lossless


Статистика раздачи [Обновить пиров]
Размер:  331 MB   |    Зарегистрирован:  1 год 1 месяц   |    Скачан:  0 раз

Полного источника не было: Никогда

 
   
 
 
 

[Цитировать]

Terje Rypdal - Melodic Warrior / The Hilliard Ensemble ( ECM )
Жанр: Classical, Choral, Modern Composition, Avant-Garde
Страна-производитель диска: Germany
Год издания диска: 2013
Издатель (лейбл): ECM Records
Номер по каталогу: 372 9504
Дата записи: 09/2003, 11/2009
Аудиокодек: FLAC
Тип рипа: tracks
Битрейт аудио: lossless
Продолжительность: 01:11:18
Источник: скачано с
сайт-источник/ник/другое: интернет
Наличие сканов в содержимом раздачи: только лицевая сторона обложки
Треклист:
Melodic Warrior (Op. 79)
1 Awakening 3:05
2 Easy Now 4:30
3 Song Of Thunders 2:54
4 The Secret File 5:48
5 My Music Reaches To The Sky 4:25
6 But Then Again 3:39
7 A Prayer 6:13
8 Magician Song 9:16
9 The Morning Star 4:09
And The Sky Was Coloured With Waterfalls And Angels (Op. 97)
10 Waterfalls 1 6:59
11 Waterfalls 2 7:01
12 Waterfalls 3 7:50
13 Waterfalls 4 5:30
Исполнители:
Composed By, Electric Guitar – Terje Rypdal
Conductor – Dennis Russell Davies (tracks: 1 to 9), Sebastian Perłowski (tracks: 10 to 13)
Orchestra – Bruckner Orchester Linz (tracks: 1 to 9), Wrocław Philharmonic Orchestra (tracks: 10 to 13)
Ensemble – Hilliard Ensemble, The (tracks: 1 to 9)
Tenor Vocals – Rogers Covey-Crump (tracks: 1 to 9), Steven Harrold (tracks: 1 to 9)
Baritone Vocals – Gordon Jones (tracks: 1 to 9)
Countertenor Vocals – David James (tracks: 1 to 9)

Лог создания рипа

Exact Audio Copy V1.0 beta 3 from 29. August 2011
EAC extraction logfile from 20. August 2013, 19:06
Terje Rypdal / Melodic Warrior
Used drive : MATSHITADVD-RAM UJ8A0AS Adapter: 0 ID: 1
Read mode : SecureUtilize accurate stream : YesDefeat audio cache : YesMake use of C2 pointers : No
Read offset correction : 102Overread into Lead-In and Lead-Out : NoFill up missing offset samples with silence : YesDelete leading and trailing silent blocks : NoNull samples used in CRC calculations : YesUsed interface : Native Win32 interface for Win NT & 2000Gap handling : Appended to previous track
Used output format : User Defined EncoderSelected bitrate : 1024 kBit/sQuality : HighAdd ID3 tag : NoCommand line compressor : C:\Encoder\flac\flac.exeAdditional command line options : -8 -V %source% -o %dest%
TOC of the extracted CD
Track | Start | Length | Start sector | End sector --------------------------------------------------------- 1 | 0:00.00 | 3:05.27 | 0 | 13901 2 | 3:05.27 | 4:30.42 | 13902 | 34193 3 | 7:35.69 | 2:54.62 | 34194 | 47305 4 | 10:30.56 | 5:48.46 | 47306 | 73451 5 | 16:19.27 | 4:25.68 | 73452 | 93394 6 | 20:45.20 | 3:39.69 | 93395 | 109888 7 | 24:25.14 | 6:13.64 | 109889 | 137927 8 | 30:39.03 | 9:16.37 | 137928 | 179664 9 | 39:55.40 | 4:17.63 | 179665 | 199002 10 | 44:13.28 | 6:51.03 | 199003 | 229830 11 | 51:04.31 | 7:01.00 | 229831 | 261405 12 | 58:05.31 | 7:50.10 | 261406 | 296665 13 | 65:55.41 | 5:30.24 | 296666 | 321439
Track 1
Filename C:\CDrip\Terje_Rypdal-Melodic_Warrior-CD-FLAC-2013-FiH\01-Terje_Rypdal-Melodic_Warrior_(Op._79)_-_Awakening.wav
Pre-gap length 0:00:02.00
Peak level 35.1 % Extraction speed 1.1 X Track quality 100.0 % Test CRC 9D1F015F Copy CRC 9D1F015F Accurately ripped (confidence 5) [CC78F34C] (AR v2) Copy OK
Track 2
Filename C:\CDrip\Terje_Rypdal-Melodic_Warrior-CD-FLAC-2013-FiH\02-Terje_Rypdal-Melodic_Warrior_(Op._79)_-_Easy_Now.wav
Peak level 98.8 % Extraction speed 1.1 X Track quality 99.9 % Test CRC 670C9760 Copy CRC 670C9760 Accurately ripped (confidence 5) [65191813] (AR v2) Copy OK
Track 3
Filename C:\CDrip\Terje_Rypdal-Melodic_Warrior-CD-FLAC-2013-FiH\03-Terje_Rypdal-Melodic_Warrior_(Op._79)_-_Song_Of_Thunders.wav
Peak level 98.8 % Extraction speed 1.3 X Track quality 100.0 % Test CRC 57903A4D Copy CRC 57903A4D Accurately ripped (confidence 5) [2718F78A] (AR v2) Copy OK
Track 4
Filename C:\CDrip\Terje_Rypdal-Melodic_Warrior-CD-FLAC-2013-FiH\04-Terje_Rypdal-Melodic_Warrior_(Op._79)_-_The_Secret_File.wav
Peak level 98.8 % Extraction speed 1.4 X Track quality 99.9 % Test CRC E65AD144 Copy CRC E65AD144 Accurately ripped (confidence 5) [5CF67DD4] (AR v2) Copy OK
Track 5
Filename C:\CDrip\Terje_Rypdal-Melodic_Warrior-CD-FLAC-2013-FiH\05-Terje_Rypdal-Melodic_Warrior_(Op._79)_-_My_Music_Reaches.wav
Peak level 98.8 % Extraction speed 1.5 X Track quality 99.9 % Test CRC D481657C Copy CRC D481657C Accurately ripped (confidence 5) [0675327D] (AR v2) Copy OK
Track 6
Filename C:\CDrip\Terje_Rypdal-Melodic_Warrior-CD-FLAC-2013-FiH\06-Terje_Rypdal-Melodic_Warrior_(Op._79)_-_But_Then_Again.wav
Peak level 58.4 % Extraction speed 1.7 X Track quality 100.0 % Test CRC A38CEF5E Copy CRC A38CEF5E Accurately ripped (confidence 5) [71944E6B] (AR v2) Copy OK
Track 7
Filename C:\CDrip\Terje_Rypdal-Melodic_Warrior-CD-FLAC-2013-FiH\07-Terje_Rypdal-Melodic_Warrior_(Op._79)_-_A_Prayer.wav
Peak level 85.1 % Extraction speed 1.9 X Track quality 100.0 % Test CRC 5911FBBE Copy CRC 5911FBBE Accurately ripped (confidence 5) [8B259AE4] (AR v2) Copy OK
Track 8
Filename C:\CDrip\Terje_Rypdal-Melodic_Warrior-CD-FLAC-2013-FiH\08-Terje_Rypdal-Melodic_Warrior_(Op._79)_-_Magician_Song.wav
Peak level 88.6 % Extraction speed 2.1 X Track quality 100.0 % Test CRC C9D30C66 Copy CRC C9D30C66 Accurately ripped (confidence 5) [07E8AC14] (AR v2) Copy OK
Track 9
Filename C:\CDrip\Terje_Rypdal-Melodic_Warrior-CD-FLAC-2013-FiH\09-Terje_Rypdal-Melodic_Warrior_(Op._79)_-_The_Morning_Star.wav
Peak level 59.7 % Extraction speed 2.1 X Track quality 100.0 % Test CRC 98C426E6 Copy CRC 98C426E6 Accurately ripped (confidence 5) [885DE002] (AR v2) Copy OK
Track 10
Filename C:\CDrip\Terje_Rypdal-Melodic_Warrior-CD-FLAC-2013-FiH\10-Terje_Rypdal-And_The_Sky_Was_Coloured_With_Waterfalls_And_Angels_(Op._97)_-_Waterfalls_1.wav
Pre-gap length 0:00:07.97
Peak level 93.2 % Extraction speed 2.1 X Track quality 99.9 % Test CRC 2267CDD4 Copy CRC 2267CDD4 Accurately ripped (confidence 5) [E2B0A11E] (AR v2) Copy OK
Track 11
Filename C:\CDrip\Terje_Rypdal-Melodic_Warrior-CD-FLAC-2013-FiH\11-Terje_Rypdal-And_The_Sky_Was_Coloured_With_Waterfalls_And_Angels_(Op._97)_-_Waterfalls_2.wav
Peak level 88.8 % Extraction speed 2.4 X Track quality 100.0 % Test CRC 8A64D5AF Copy CRC 8A64D5AF Accurately ripped (confidence 5) [FA84F135] (AR v2) Copy OK
Track 12
Filename C:\CDrip\Terje_Rypdal-Melodic_Warrior-CD-FLAC-2013-FiH\12-Terje_Rypdal-And_The_Sky_Was_Coloured_With_Waterfalls_And_Angels_(Op._97)_-_Waterfalls_3.wav
Peak level 86.0 % Extraction speed 2.4 X Track quality 99.9 % Test CRC 2A96291C Copy CRC 2A96291C Accurately ripped (confidence 5) [4F6388EC] (AR v2) Copy OK
Track 13
Filename C:\CDrip\Terje_Rypdal-Melodic_Warrior-CD-FLAC-2013-FiH\13-Terje_Rypdal-And_The_Sky_Was_Coloured_With_Waterfalls_And_Angels_(Op._97)_-_Waterfalls_4.wav
Peak level 94.1 % Extraction speed 2.4 X Track quality 99.9 % Test CRC 3827F5E5 Copy CRC 3827F5E5 Accurately ripped (confidence 5) [1F73D03A] (AR v2) Copy OK
All tracks accurately ripped
No errors occurred
End of status report
==== Log checksum A864C025FDBEF1622F43820C64F69979BDD3E8CFF45AB1C8302EDC4FFABEB6D3 ====

Dynamic Range Meter

foobar2000 1.2.2 / Dynamic Range Meter 1.1.1log date: 2013-09-02 23:51:06
--------------------------------------------------------------------------------Analyzed: Terje Rypdal / Melodic Warrior--------------------------------------------------------------------------------
DR Peak RMS Duration Track--------------------------------------------------------------------------------DR11 -9.09 dB -26.00 dB 3:05 01-Melodic Warrior, Op. 79: AwakeningDR11 -0.10 dB -14.60 dB 4:31 02-Melodic Warrior, Op. 79: Easy NowDR10 -0.10 dB -12.24 dB 2:55 03-Melodic Warrior, Op. 79: Song Of ThundersDR12 -0.10 dB -18.78 dB 5:49 04-Melodic Warrior, Op. 79: The Secret FileDR11 -0.10 dB -13.73 dB 4:26 05-Melodic Warrior, Op. 79: My Music Reaches To The SkyDR11 -4.67 dB -20.70 dB 3:40 06-Melodic Warrior, Op. 79: But Then AgainDR12 -1.39 dB -19.01 dB 6:14 07-Melodic Warrior, Op. 79: A PrayerDR12 -1.04 dB -18.08 dB 9:16 08-Melodic Warrior, Op. 79: Magician SongDR12 -4.48 dB -22.07 dB 4:18 09-Melodic Warrior, Op. 79: The Morning StarDR13 -0.61 dB -19.94 dB 6:51 10-And The Sky Was Coloured With Waterfalls And Angels, Op. 97: Waterfalls 1DR11 -1.02 dB -16.26 dB 7:01 11-And The Sky Was Coloured With Waterfalls And Angels, Op. 97: Waterfalls 2DR12 -1.30 dB -19.53 dB 7:50 12-And The Sky Was Coloured With Waterfalls And Angels, Op. 97: Waterfalls 3DR13 -0.52 dB -16.85 dB 5:30 13-And The Sky Was Coloured With Waterfalls And Angels, Op. 97: Waterfalls 4--------------------------------------------------------------------------------
Number of tracks: 13Official DR value: DR12
Samplerate: 44100 HzChannels: 2Bits per sample: 16Bitrate: 725 kbpsCodec: FLAC================================================================================
Доп. информация:
Tracks 1 to 9 recorded December 2003 at Brucknerhaus, Linz (ORF)
Tracks 10 to 13 recorded November 2009 at Jazztopad Festival, Wrocław
[teatrix.ru].t8036.torrent 
Торрент: Зарегистрирован [ 2015-10-14 02:49 ] · 5B5F9E25661EBA80FD22705F4898BB4B15AF42DB

Скачать .torrent

Скачать

15 KB

Статус: проверено
Скачан: 0 раз
Размер: 331 MB
terms.php



Быстрый ответ

Имя:

      
Для отправки сообщений необходимо включить JavaScript
Показать сообщения:    

Текущее время: 05-Дек 19:35

Часовой пояс: UTC + 3


Вы можете начинать темы
Вы можете отвечать на сообщения
Вы не можете редактировать свои сообщения
Вы не можете удалять свои сообщения
Вы не можете голосовать в опросах
Вы не можете прикреплять файлы к сообщениям
Вы можете скачивать файлы