(Classical) The Triumphs of Oriana - The King\'s Singers - 2006, FLAC (image+.cue) lossless


 

[Цитировать]

The Triumphs of Oriana - The King's Singers
Жанр: Classical
Страна-производитель диска: UK
Год издания диска: 2006
Издатель (лейбл): Signum Records
Дата записи: 1998
Аудиокодек: FLAC
Тип рипа: image+.cue
Битрейт аудио: lossless
Продолжительность: 67:13
Источник: собственный рип
Наличие сканов в содержимом раздачи: да
Треклист:
The Triumphs of Oriana
[1] Michael East: Hence, stars, too dim of light
[2] Daniel Norcombe: With angel's face and brightness
[3] John Mundy: Lightly she whipped o'er the dales
[4] Ellis Gibbons: Long live fair Oriana
[5] John Bennet: All creatures now are merry-minded
[6] John Hilton: Fair Oriana, beauty's queen
[7] George Marson: The nymphs and shepherds danced
[8] Richard Carlton: Calm was the air and clear the sky
[9] John Holmes: Thus Bonny-boots the birthday celebrated
[10] Richard Nicolson: Sing, shepherds all, and in your roundelays
[11] Thomas Tomkins: The fauns and satyrs tripping
[12] Michael Cavendish: Come, gentle swains
[13] William Cobbold: With wreaths of rose and laurel
[14] Thomas Morley: Arise, awake, awake
[15] John Farmer: Fair nymphs I heard one telling
[16] John Wilbye: The lady Oriana
[17] Thomas Hunt: Hark! Did ye ever hear so sweet a singing?
[18] Thomas Weelkes: As Vesta was from Latmos hill descending
[19] John Milton: Fair Orion, in the morn
[20] Ellis Gibbons: Round about her charret
[21] George Kirbye: Bright Phoebus greets most clearly
[22] Robert Jones: Fair Oriana, seeming to wink at folly
[23] John Lisley: Fair Cytherea presents her doves
[24] Thomas Morley: Hard by a crystal fountain
[25] Edward Johnson: Come, blessed Byrd
The Triumphs of Oriana это своеобразное музыкальное приношение, сделанное королеве Елизавете I Томасом Морли (Thomas Morley, Gentleman of the Chapel Royal). Сборник был опубликован в 1601 году и содержит 25 мадригалов 23 композиторов. Каждый мадригал заканчивается рефреном:
Then sang the shepherds and nymphs of Diana:
Long live fair Oriana

Исполнители:
The King's Singers
David Hurley countertenor
Nigel Short countertenor
Paul Phoenix tenor
Philip Lawson baritone
Gabriel Crouch baritone
Stephen Connolly bass

Лог создания рипа

Exact Audio Copy V1.0 beta 3 from 29. August 2011
EAC extraction logfile from 20. February 2015, 0:26
The King's Singers / The Triumphs of Oriana
Used drive : HL-DT-STDVDRAM GU70N Adapter: 0 ID: 0
Read mode : SecureUtilize accurate stream : YesDefeat audio cache : YesMake use of C2 pointers : No
Read offset correction : 48Overread into Lead-In and Lead-Out : NoFill up missing offset samples with silence : YesDelete leading and trailing silent blocks : NoNull samples used in CRC calculations : YesUsed interface : Native Win32 interface for Win NT & 2000
Used output format : User Defined EncoderSelected bitrate : 128 kBit/sQuality : HighAdd ID3 tag : NoCommand line compressor : C:\Program Files (x86)\Exact Audio Copy\Flac\flac.exeAdditional command line options : -V -8 -T "Date=%year%" -T "Genre=%genre%" %source%
TOC of the extracted CD
Track | Start | Length | Start sector | End sector --------------------------------------------------------- 1 | 0:00.00 | 1:39.50 | 0 | 7474 2 | 1:39.50 | 2:04.60 | 7475 | 16834 3 | 3:44.35 | 2:56.50 | 16835 | 30084 4 | 6:41.10 | 2:40.12 | 30085 | 42096 5 | 9:21.22 | 1:53.50 | 42097 | 50621 6 | 11:14.72 | 2:02.05 | 50622 | 59776 7 | 13:17.02 | 2:38.30 | 59777 | 71656 8 | 15:55.32 | 3:43.33 | 71657 | 88414 9 | 19:38.65 | 2:28.57 | 88415 | 99571 10 | 22:07.47 | 3:26.43 | 99572 | 115064 11 | 25:34.15 | 4:23.00 | 115065 | 134789 12 | 29:57.15 | 3:04.05 | 134790 | 148594 13 | 33:01.20 | 2:07.37 | 148595 | 158156 14 | 35:08.57 | 2:09.38 | 158157 | 167869 15 | 37:18.20 | 2:23.17 | 167870 | 178611 16 | 39:41.37 | 2:22.72 | 178612 | 189333 17 | 42:04.34 | 3:00.43 | 189334 | 202876 18 | 45:05.02 | 3:04.40 | 202877 | 216716 19 | 48:09.42 | 2:13.05 | 216717 | 226696 20 | 50:22.47 | 2:27.10 | 226697 | 237731 21 | 52:49.57 | 2:13.58 | 237732 | 247764 22 | 55:03.40 | 2:53.65 | 247765 | 260804 23 | 57:57.30 | 3:37.50 | 260805 | 277129 24 | 61:35.05 | 3:05.17 | 277130 | 291021 25 | 64:40.22 | 2:30.20 | 291022 | 302291
Range status and errors
Selected range
Filename C:\temp\The Triumphs of Oriana - The King's Singers\The Triumphs of Oriana.wav
Peak level 92.7 % Extraction speed 5.0 X Range quality 100.0 % Test CRC 325AB03F Copy CRC 325AB03F Copy OK
No errors occurred
AccurateRip summary
Track 1 accurately ripped (confidence 5) [B356D125] (AR v2)Track 2 accurately ripped (confidence 5) [6D5F0282] (AR v2)Track 3 accurately ripped (confidence 5) [CB972DDE] (AR v2)Track 4 accurately ripped (confidence 5) [0BF4E0D2] (AR v2)Track 5 accurately ripped (confidence 5) [5DCAEEAC] (AR v2)Track 6 accurately ripped (confidence 5) [BB789F89] (AR v2)Track 7 accurately ripped (confidence 5) [D1660C7D] (AR v2)Track 8 accurately ripped (confidence 5) [E1002A20] (AR v2)Track 9 accurately ripped (confidence 5) [CECF179D] (AR v2)Track 10 accurately ripped (confidence 5) [254155EC] (AR v2)Track 11 accurately ripped (confidence 5) [637959E4] (AR v2)Track 12 accurately ripped (confidence 5) [1CBDEC30] (AR v2)Track 13 accurately ripped (confidence 5) [DC0FB933] (AR v2)Track 14 accurately ripped (confidence 5) [BCA701C1] (AR v2)Track 15 accurately ripped (confidence 5) [64C95476] (AR v2)Track 16 accurately ripped (confidence 5) [21DCE8CF] (AR v2)Track 17 accurately ripped (confidence 5) [EFF6A941] (AR v2)Track 18 accurately ripped (confidence 5) [2CBAECB6] (AR v2)Track 19 accurately ripped (confidence 5) [366D3019] (AR v2)Track 20 accurately ripped (confidence 5) [544E6FF4] (AR v2)Track 21 accurately ripped (confidence 5) [9C3CF27E] (AR v2)Track 22 accurately ripped (confidence 5) [9022EB0F] (AR v2)Track 23 accurately ripped (confidence 5) [86E1A295] (AR v2)Track 24 accurately ripped (confidence 5) [5B309053] (AR v2)Track 25 accurately ripped (confidence 5) [61700DD6] (AR v2)
All tracks accurately ripped
End of status report
==== Log checksum 3396254E0588BADA95B348790FC534560E6B5A944BF21CC973F1A3A08EF3E807 ====



Показать сообщения:    

Текущее время: 07-Дек 00:52

Часовой пояс: UTC + 3


Вы не можете начинать темы
Вы не можете отвечать на сообщения
Вы не можете редактировать свои сообщения
Вы не можете удалять свои сообщения
Вы не можете голосовать в опросах
Вы не можете прикреплять файлы к сообщениям
Вы не можете скачивать файлы