(Musical Tale) Игорь Стравинский - История солдата / Stravinsky - The Soldier\'s Tale (Melvyn Douglas, James Mitchell, Alvin Epstein - Kapp Sinfonietta, Emanuel Vardi) - 1989, APE (image+.cue) lossless


 

[Цитировать]

Igor Stravinsky - The Soldier's Tale
Жанр: Musical Tale
Страна-производитель диска: USA
Год издания диска: 1989
Издатель (лейбл): MCA Classics
Номер по каталогу: MCAD2 9820A
Дата записи: 1957
Аудиокодек: APE
Тип рипа: image+.cue
Битрейт аудио: lossless
Продолжительность: 52'18
Источник: собственный рип
Наличие сканов в содержимом раздачи: да
Треклист:
1. Soldier's March
2. Scene 1
3. Scene 2 Part 1
4. Scene 2 Part 2
5. Scene 2 Part 3
6. Scene 3
7. Soldier's March (Reprise)
8. The Royal March
9. The Card Game
10. The Little Concert
11. Tango
12. Waltz
13. Ragtime
14. The Devil's Dance
15. The Little Choral
16. The Devil's Song
17. The Great Choral
18. Triumphal March of the Devil
Исполнители:
Igor Stravinsky - The Soldier's Tale
In English
Melvyn Douglas, narrater
James Mitchell, the soldier
Alan Epstein, the devil
Kapp Sinfonietta
Emanuel Vardi, director

Лог создания рипа

Exact Audio Copy V1.0 beta 3 from 29. August 2011
EAC extraction logfile from 1. February 2015, 14:17
Stravinsky / The Soldier's Tale, Vardi
Used drive : TSSTcorpCDDVDW SE-208AB Adapter: 1 ID: 0
Read mode : SecureUtilize accurate stream : YesDefeat audio cache : YesMake use of C2 pointers : No
Read offset correction : 6Overread into Lead-In and Lead-Out : NoFill up missing offset samples with silence : YesDelete leading and trailing silent blocks : NoNull samples used in CRC calculations : YesUsed interface : Native Win32 interface for Win NT & 2000
Used output format : Monkey's Audio Lossless EncoderSelected bitrate : High Lossless CompressionQuality : HighAdd ID3 tag : YesCommand line compressor : C:\Program Files (x86)\Exact Audio Copy\MAC\MAC.exe
TOC of the extracted CD
Track | Start | Length | Start sector | End sector --------------------------------------------------------- 1 | 0:00.37 | 1:40.73 | 37 | 7609 2 | 1:41.35 | 3:41.42 | 7610 | 24226 3 | 5:23.02 | 6:35.03 | 24227 | 53854 4 | 11:58.05 | 2:06.10 | 53855 | 63314 5 | 14:04.15 | 1:51.55 | 63315 | 71694 6 | 15:55.70 | 7:13.35 | 71695 | 104204 7 | 23:09.30 | 1:13.17 | 104205 | 109696 8 | 24:22.47 | 4:24.35 | 109697 | 129531 9 | 28:47.07 | 4:05.58 | 129532 | 147964 10 | 32:52.65 | 2:59.65 | 147965 | 161454 11 | 35:52.55 | 2:10.05 | 161455 | 171209 12 | 38:02.60 | 1:53.47 | 171210 | 179731 13 | 39:56.32 | 2:08.63 | 179732 | 189394 14 | 42:05.20 | 1:47.15 | 189395 | 197434 15 | 43:52.35 | 1:01.42 | 197435 | 202051 16 | 44:54.02 | 0:35.73 | 202052 | 204749 17 | 45:30.00 | 3:52.65 | 204750 | 222214 18 | 49:22.65 | 2:55.15 | 222215 | 235354
Range status and errors
Selected range
Filename D:\EAC\Stravinsky - The Soldier's Tale, Vardi.wav
Peak level 83.2 % Extraction speed 4.7 X Range quality 99.9 % Test CRC 6618528C Copy CRC 6618528C Copy OK
No errors occurred
AccurateRip summary
Track 1 accurately ripped (confidence 2) [404C22B4] (AR v2)Track 2 accurately ripped (confidence 1) [DF7FE30D] (AR v2)Track 3 accurately ripped (confidence 1) [A728C315] (AR v2)Track 4 accurately ripped (confidence 1) [49B6E378] (AR v2)Track 5 accurately ripped (confidence 1) [7F3BC059] (AR v2)Track 6 accurately ripped (confidence 1) [6A838649] (AR v2)Track 7 accurately ripped (confidence 1) [7391D8FD] (AR v2)Track 8 accurately ripped (confidence 1) [A7150F56] (AR v2)Track 9 accurately ripped (confidence 1) [241D2BD5] (AR v2)Track 10 accurately ripped (confidence 1) [38C7937E] (AR v2)Track 11 accurately ripped (confidence 1) [49B9FC7F] (AR v2)Track 12 accurately ripped (confidence 1) [C34A50A2] (AR v2)Track 13 accurately ripped (confidence 1) [34093A04] (AR v2)Track 14 accurately ripped (confidence 1) [F91D2305] (AR v2)Track 15 accurately ripped (confidence 1) [65FFDEB0] (AR v2)Track 16 accurately ripped (confidence 1) [F82FB051] (AR v2)Track 17 accurately ripped (confidence 2) [205B5378] (AR v2)Track 18 accurately ripped (confidence 1) [83F8F8EA] (AR v2)
All tracks accurately ripped
End of status report
---- CUETools DB Plugin V2.1.3
[CTDB TOCID: MyWqXwUsQcCfeLkZlKiTZ5hVabg-] disk not present in database, Submit result: discs with pregaps not supported in this protocol version
==== Log checksum 1280130871CEC8F18CC2AB24CBFABBDB2C28F0AC5CEA5FFB30F520E90B89205A ====

Содержание индексной карты (.CUE)

REM GENRE VocalREM DATE 1989REM DISCID 110C4212REM COMMENT "ExactAudioCopy v1.0b3"CATALOG 0000000000000PERFORMER "Stravinsky "TITLE "The Soldier's Tale, Vardi"FILE "Stravinsky - The Soldier's Tale, Vardi.ape" WAVE TRACK 01 AUDIO TITLE "Soldier's March" PERFORMER "Stravinsky " INDEX 00 00:00:00 INDEX 01 00:00:37 TRACK 02 AUDIO TITLE "Scene 1" PERFORMER "Stravinsky " INDEX 01 01:41:35 TRACK 03 AUDIO TITLE "Scene 2 Part 1" PERFORMER "Stravinsky " INDEX 01 05:23:02 TRACK 04 AUDIO TITLE "Scene 2 Part 2" PERFORMER "Stravinsky " INDEX 01 11:58:05 TRACK 05 AUDIO TITLE "Scene 2 Part 3" PERFORMER "Stravinsky " INDEX 01 14:04:15 TRACK 06 AUDIO TITLE "Scene 3" PERFORMER "Stravinsky " INDEX 01 15:55:70 TRACK 07 AUDIO TITLE "Soldier's March (Reprise)" PERFORMER "Stravinsky " INDEX 01 23:09:30 TRACK 08 AUDIO TITLE "The Royal March" PERFORMER "Stravinsky " INDEX 01 24:22:47 TRACK 09 AUDIO TITLE "The Card Game" PERFORMER "Stravinsky " INDEX 01 28:47:07 TRACK 10 AUDIO TITLE "The Little Concert" PERFORMER "Stravinsky " INDEX 01 32:52:65 TRACK 11 AUDIO TITLE "Tango" PERFORMER "Stravinsky " INDEX 01 35:52:55 TRACK 12 AUDIO TITLE "Waltz" PERFORMER "Stravinsky " INDEX 01 38:02:60 TRACK 13 AUDIO TITLE "Ragtime" PERFORMER "Stravinsky " INDEX 01 39:56:32 TRACK 14 AUDIO TITLE "The Devil's Dance" PERFORMER "Stravinsky " INDEX 01 42:05:20 TRACK 15 AUDIO TITLE "The Little Choral" PERFORMER "Stravinsky " INDEX 01 43:52:35 TRACK 16 AUDIO TITLE "The Devil's Song" PERFORMER "Stravinsky " INDEX 01 44:54:02 TRACK 17 AUDIO TITLE "The Great Choral" PERFORMER "Stravinsky " INDEX 01 45:30:00 TRACK 18 AUDIO TITLE "Triumphal March of the Devil" PERFORMER "Stravinsky " INDEX 01 49:22:65



Показать сообщения:    

Текущее время: 08-Дек 21:11

Часовой пояс: UTC + 3


Вы не можете начинать темы
Вы не можете отвечать на сообщения
Вы не можете редактировать свои сообщения
Вы не можете удалять свои сообщения
Вы не можете голосовать в опросах
Вы не можете прикреплять файлы к сообщениям
Вы не можете скачивать файлы