(Sacred, Medievel) Hildegard von Bingen - The Music of a Saint (Schola der Benediktinerinnenabtei St. Hildegard Rudesheim-Ebingen, Ritscher) - 2001, APE (image+.cue) lossless


 

[Цитировать]

Hildegard von Bingen
Жанр: Sacred, Medievel
Страна-производитель диска: EU
Год издания диска: 2001
Издатель (лейбл): Brilliant Classics
Номер по каталогу: 99453
Аудиокодек: APE
Тип рипа: image+.cue
Битрейт аудио: lossless
Продолжительность: 40'34
Источник: собственный рип
Наличие сканов в содержимом раздачи: да
Треклист:
From the Hildegard Liederband
1. Cum processit factura
2. Cum erubuerint infelices
3. O frondens virgo
4. Ave, generosa, gloriosa
5. O virga ac diadema purpurae regis
6. Caritas abundat
7. O pastor animarum
8. O quam pretiosa est
9. Kyrie
From Ordo Virtutum
10. Patriarchae et Prophetae
11. Castitas Virtutes
12. Antiphona ad Magnificat Magnificat
Gregorian Chant
13. Antiphona ad Benedictus Hildegardis prophetissa
14. In IVesperis (l.Vesper) Hymnus ex Officio in hon. S. Hildegardis
Исполнители:
Schola der Benediktinerinnenabtei St. Hildegard Rudesheim-Ebingen
Leitung: M. Immaculata Ritscher OSB

Лог создания рипа

Exact Audio Copy V1.0 beta 3 from 29. August 2011
EAC extraction logfile from 25. May 2015, 19:22
Hildegard von Bingen / The Music of a Saint, Sactus CD1
Used drive : TS8XDVDSTRANSCEND Adapter: 1 ID: 1
Read mode : SecureUtilize accurate stream : YesDefeat audio cache : YesMake use of C2 pointers : No
Read offset correction : 6Overread into Lead-In and Lead-Out : NoFill up missing offset samples with silence : YesDelete leading and trailing silent blocks : NoNull samples used in CRC calculations : YesUsed interface : Native Win32 interface for Win NT & 2000
Used output format : Monkey's Audio Lossless EncoderSelected bitrate : High Lossless CompressionQuality : HighAdd ID3 tag : YesCommand line compressor : C:\Program Files (x86)\Exact Audio Copy\MAC\MAC.exe
TOC of the extracted CD
Track | Start | Length | Start sector | End sector --------------------------------------------------------- 1 | 0:00.00 | 2:56.07 | 0 | 13206 2 | 2:56.07 | 1:58.45 | 13207 | 22101 3 | 4:54.52 | 1:47.08 | 22102 | 30134 4 | 6:41.60 | 5:02.04 | 30135 | 52788 5 | 11:43.64 | 7:10.48 | 52789 | 85086 6 | 18:54.37 | 1:47.58 | 85087 | 93169 7 | 20:42.20 | 1:25.72 | 93170 | 99616 8 | 22:08.17 | 4:02.48 | 99617 | 117814 9 | 26:10.65 | 2:07.12 | 117815 | 127351 10 | 28:18.02 | 2:10.73 | 127352 | 137174 11 | 30:29.00 | 1:43.65 | 137175 | 144964 12 | 32:12.65 | 1:03.72 | 144965 | 149761 13 | 33:16.62 | 4:24.20 | 149762 | 169581 14 | 37:41.07 | 2:53.08 | 169582 | 182564
Range status and errors
Selected range
Filename D:\EAC\Hildegard von Bingen - The Music of a Saint, Sactus CD1.wav
Peak level 93.7 % Extraction speed 2.6 X Range quality 99.9 % Test CRC 52D16D3F Copy CRC 52D16D3F Copy OK
No errors occurred
AccurateRip summary
Track 1 accurately ripped (confidence 6) [8706F66B] (AR v2)Track 2 accurately ripped (confidence 6) [D45919B5] (AR v2)Track 3 accurately ripped (confidence 6) [83ED689F] (AR v2)Track 4 accurately ripped (confidence 6) [8BE4C3AD] (AR v2)Track 5 accurately ripped (confidence 6) [9D0ADC67] (AR v2)Track 6 accurately ripped (confidence 6) [9922B1AD] (AR v2)Track 7 accurately ripped (confidence 6) [61991990] (AR v2)Track 8 accurately ripped (confidence 6) [8EBBC571] (AR v2)Track 9 accurately ripped (confidence 6) [271473F3] (AR v2)Track 10 accurately ripped (confidence 6) [E422F679] (AR v2)Track 11 accurately ripped (confidence 6) [463E25ED] (AR v2)Track 12 accurately ripped (confidence 6) [6EE2061A] (AR v2)Track 13 accurately ripped (confidence 6) [7B97D5E3] (AR v2)Track 14 accurately ripped (confidence 6) [6DE3DBAA] (AR v2)
All tracks accurately ripped
End of status report
---- CUETools DB Plugin V2.1.3
[CTDB TOCID: ZgxaZutnFwwcgiSNCsk6zG_LMPE-] found, Submit result: unrecognized or virtual drive[3b4a27ad] (14/14) Accurately ripped
==== Log checksum D90ED46178446F61FE94E4D013198C196460B0264196C05AF3B1B3E3322E9BFC ====

Содержание индексной карты (.CUE)

REM GENRE VocalREM DATE 2006REM DISCID B009820EREM COMMENT "ExactAudioCopy v1.0b3"PERFORMER "Hildegard von Bingen"TITLE "The Music of a Saint, Sactus CD1"FILE "Hildegard von Bingen - The Music of a Saint, Sactus CD1.ape" WAVE TRACK 01 AUDIO TITLE "Cum processit factura" PERFORMER "Hildegard von Bingen" INDEX 01 00:00:00 TRACK 02 AUDIO TITLE "Cum erubuerint infelices" PERFORMER "Hildegard von Bingen" INDEX 00 02:50:02 INDEX 01 02:56:07 TRACK 03 AUDIO TITLE "O frondens virgo" PERFORMER "Hildegard von Bingen" INDEX 00 04:48:69 INDEX 01 04:54:52 TRACK 04 AUDIO TITLE "Ave, generosa, gloriosa" PERFORMER "Hildegard von Bingen" INDEX 00 06:35:40 INDEX 01 06:41:60 TRACK 05 AUDIO TITLE "O virga ac diadema purpurae regis" PERFORMER "Hildegard von Bingen" INDEX 00 11:36:20 INDEX 01 11:43:64 TRACK 06 AUDIO TITLE "Caritas abundat" PERFORMER "Hildegard von Bingen" INDEX 00 18:48:02 INDEX 01 18:54:37 TRACK 07 AUDIO TITLE "O pastor animarum" PERFORMER "Hildegard von Bingen" INDEX 00 20:37:36 INDEX 01 20:42:20 TRACK 08 AUDIO TITLE "O quam pretiosa est" PERFORMER "Hildegard von Bingen" INDEX 00 22:02:31 INDEX 01 22:08:17 TRACK 09 AUDIO TITLE "Kyrie" PERFORMER "Hildegard von Bingen" INDEX 00 26:04:49 INDEX 01 26:10:65 TRACK 10 AUDIO TITLE "Patriarchae et Prophetae" PERFORMER "Hildegard von Bingen" INDEX 00 28:12:22 INDEX 01 28:18:02 TRACK 11 AUDIO TITLE "Castitas Virtutes" PERFORMER "Hildegard von Bingen" INDEX 00 30:24:11 INDEX 01 30:29:00 TRACK 12 AUDIO TITLE "Antiphona ad Magnificat Magnificat" PERFORMER "Hildegard von Bingen" INDEX 00 32:07:36 INDEX 01 32:12:65 TRACK 13 AUDIO TITLE "Antiphona ad Benedictus Hildegardis prophetissa" PERFORMER "Hildegard von Bingen" INDEX 00 33:10:15 INDEX 01 33:16:62 TRACK 14 AUDIO TITLE "In IVesperis (l.Vesper) Hymnus ex Officio in hon. S. Hildegardis" PERFORMER "Hildegard von Bingen" INDEX 00 37:34:27 INDEX 01 37:41:07



Показать сообщения:    

Текущее время: 11-Дек 09:10

Часовой пояс: UTC + 3


Вы не можете начинать темы
Вы не можете отвечать на сообщения
Вы не можете редактировать свои сообщения
Вы не можете удалять свои сообщения
Вы не можете голосовать в опросах
Вы не можете прикреплять файлы к сообщениям
Вы не можете скачивать файлы