(Classical) Marie et Marion: Motets & Chansons from 13th-century France - Anonymous 4 - 2014, FLAC (image+.cue) lossless


 

[Цитировать]

Marie et Marion: Motets & Chansons from 13th-century France - Anonymous 4
Жанр: Classical
Страна-производитель диска: USA
Год издания диска: 2014
Издатель (лейбл): Harmonia Mundi USA
Номер по каталогу: HMU807524
Дата записи: 2013
Аудиокодек: FLAC
Тип рипа: image+.cue
Битрейт аудио: lossless
Продолжительность: 56:02
Источник: собственный рип
Наличие сканов в содержимом раздачи: да
Треклист:
Marie et Marion
Motets & Chansons from 13th-century France
[1] Mater dei plena / Mater virgo pia / EIUS
[2] He mere diu / La virge marie / APTATUR
[3] A la clarte qui tout / ET ILLUMINARE
[4] Marie assumptio afficiat / Hujus chori suscipe / [TENOR]
[5] Chanson: De la gloriouse fenix
[6] Ave lux luminum / Salve virgo rubens / NEUMA
[7] Plus joliement c'onques / Quant li douz tans / PORTARE
[8] Reverdie: Volez vous que je vous chant
[9] J'ai les biens / Que ferai biau sire / IN SECULUM
[10] Que ferai biaus sire / Ne puet faillir / DESCENDENTIBUS
[11] Pensis chief enclin / [FLOS FILIUS EIUS]
[12] L'autre jour par un matinet / Hier matinet trouvai / ITE MISSA EST
[13] Quant florist la violete / El mois de mai / ET GAUDEBIT
[14] Sans orgueil et sens envie / [MAIOR] IOHAN[NE]
[15] Trois serors / Trois serors / Trois serors / [PERLUSTRAVIT]
[16] Chanson: Amors me fait commencier
[17] En mai quant rosier / L'autre jour par un matin / HE RESVELLE TOI ROBIN
[18] Pucelete bele et avenant / Je languis des maus / DOMINO
[19] Diex qui porroit / En grant dolour / APTATUR
[20] Pour chou que j'aim / Li joli tans / KYRIELEISON
[21] Chanson: J'ai un cuer trop lait
[22] Par une matinee / Mellis stilla / DOMINO
[23] Or voi je bien / Eximium decus / VIRGO
[24] Plus bele que flor / Quant revient et fuelle / L'autrier joer / FLOS [FILIUS EIUS]
Исполнители:
Anonymous 4
Ruth Cunningham
Marsha Genensky
Susan Hellauer
Jacqueline Horner-Kwiatek

Лог создания рипа

Exact Audio Copy V1.0 beta 3 from 29. August 2011
EAC extraction logfile from 10. February 2015, 21:08
Anonymous 4 / Marie et Marion
Used drive : HL-DT-STDVDRAM GU70N Adapter: 0 ID: 0
Read mode : SecureUtilize accurate stream : YesDefeat audio cache : YesMake use of C2 pointers : No
Read offset correction : 48Overread into Lead-In and Lead-Out : NoFill up missing offset samples with silence : YesDelete leading and trailing silent blocks : NoNull samples used in CRC calculations : YesUsed interface : Native Win32 interface for Win NT & 2000
Used output format : User Defined EncoderSelected bitrate : 128 kBit/sQuality : HighAdd ID3 tag : NoCommand line compressor : C:\Program Files (x86)\Exact Audio Copy\Flac\flac.exeAdditional command line options : -V -8 -T "Date=%year%" -T "Genre=%genre%" %source%
TOC of the extracted CD
Track | Start | Length | Start sector | End sector --------------------------------------------------------- 1 | 0:00.00 | 2:19.57 | 0 | 10481 2 | 2:19.57 | 1:30.36 | 10482 | 17267 3 | 3:50.18 | 2:20.50 | 17268 | 27817 4 | 6:10.68 | 2:34.32 | 27818 | 39399 5 | 8:45.25 | 5:38.07 | 39400 | 64756 6 | 14:23.32 | 1:59.53 | 64757 | 73734 7 | 16:23.10 | 1:30.46 | 73735 | 80530 8 | 17:53.56 | 3:51.53 | 80531 | 97908 9 | 21:45.34 | 1:06.68 | 97909 | 102926 10 | 22:52.27 | 1:23.35 | 102927 | 109186 11 | 24:15.62 | 2:13.13 | 109187 | 119174 12 | 26:29.00 | 1:33.03 | 119175 | 126152 13 | 28:02.03 | 1:45.64 | 126153 | 134091 14 | 29:47.67 | 1:56.03 | 134092 | 142794 15 | 31:43.70 | 1:24.74 | 142795 | 149168 16 | 33:08.69 | 4:18.57 | 149169 | 168575 17 | 37:27.51 | 1:21.29 | 168576 | 174679 18 | 38:49.05 | 0:58.66 | 174680 | 179095 19 | 39:47.71 | 2:02.08 | 179096 | 188253 20 | 41:50.04 | 2:20.63 | 188254 | 198816 21 | 44:10.67 | 4:39.10 | 198817 | 219751 22 | 48:50.02 | 1:39.36 | 219752 | 227212 23 | 50:29.38 | 2:50.09 | 227213 | 239971 24 | 53:19.47 | 2:40.21 | 239972 | 251992
Range status and errors
Selected range
Filename C:\temp\HMU807524 - Marie et Marion (Anonymous 4 - HARMONIA MUNDI)\Marie et Marion.wav
Peak level 94.0 % Extraction speed 2.2 X Range quality 100.0 % Test CRC 8AB0B675 Copy CRC 8AB0B675 Copy OK
No errors occurred
AccurateRip summary
Track 1 accurately ripped (confidence 4) [AAD36086] (AR v2)Track 2 accurately ripped (confidence 4) [63A1CCA9] (AR v2)Track 3 accurately ripped (confidence 4) [ABD0D0E6] (AR v2)Track 4 accurately ripped (confidence 4) [F057ED97] (AR v2)Track 5 accurately ripped (confidence 4) [9FE3DB04] (AR v2)Track 6 accurately ripped (confidence 4) [B48EEAB2] (AR v2)Track 7 accurately ripped (confidence 4) [1A8B98ED] (AR v2)Track 8 accurately ripped (confidence 4) [5D0E49EF] (AR v2)Track 9 accurately ripped (confidence 4) [79BCDA23] (AR v2)Track 10 accurately ripped (confidence 4) [2DE40957] (AR v2)Track 11 accurately ripped (confidence 4) [C9C48AE5] (AR v2)Track 12 accurately ripped (confidence 4) [BF94CE0A] (AR v2)Track 13 accurately ripped (confidence 4) [02941A91] (AR v2)Track 14 accurately ripped (confidence 4) [028BD3D2] (AR v2)Track 15 accurately ripped (confidence 4) [A114C785] (AR v2)Track 16 accurately ripped (confidence 4) [2C3255FF] (AR v2)Track 17 accurately ripped (confidence 4) [7EF9EB7A] (AR v2)Track 18 accurately ripped (confidence 4) [71E095D7] (AR v2)Track 19 accurately ripped (confidence 4) [8060682B] (AR v2)Track 20 accurately ripped (confidence 4) [EF05B49E] (AR v2)Track 21 accurately ripped (confidence 4) [57602AAD] (AR v2)Track 22 accurately ripped (confidence 4) [C1B7205A] (AR v2)Track 23 accurately ripped (confidence 4) [2645C54D] (AR v2)Track 24 accurately ripped (confidence 4) [4EBFD82B] (AR v2)
All tracks accurately ripped
End of status report
==== Log checksum 3F40173B107589BBA54753650D2FEE38ADFF14D9CECDBC8F28C173CCF7359BB8 ====



Показать сообщения:    

Текущее время: 03-Дек 03:23

Часовой пояс: UTC + 3


Вы не можете начинать темы
Вы не можете отвечать на сообщения
Вы не можете редактировать свои сообщения
Вы не можете удалять свои сообщения
Вы не можете голосовать в опросах
Вы не можете прикреплять файлы к сообщениям
Вы не можете скачивать файлы