(Baroque Vocal) Mozart - Concert Arias II (Miranda van Kralingen - European Sinfonietta, Ed Spanjaard) - 2005, APE (image+.cue) lossless


 

[Цитировать]

Wolfgang Amadeus Mozart - Concert Arias II
Жанр: Baroque Vocal
Страна-производитель диска: EU
Год издания диска: 2005
Издатель (лейбл): Brilliant
Номер по каталогу: 99731/2
Дата записи: 2002
Аудиокодек: APE
Тип рипа: image+.cue
Битрейт аудио: lossless
Продолжительность: 64'39
Источник: собственный рип
Наличие сканов в содержимом раздачи: да
Треклист:
01 Ch'io mi scordi di te...Non temer, amato bene, KV 505
02 Alma grande e nobil core, KV 578
03 A questo seno...Or che il cielo, KV 374
04 Basta vincesti...Ah, non lasciarmi KV 486a (295a)
05 Al desio , di chi t'adora, KV 577
06 Conservati fedele, KV 23
07 Voi avete un cor fedele, KV 217
08 Misero mi... Misero pargoletto, KV 77
09 Nehmt meinem Dank, KV 383
Исполнители:
Miranda van Kralingen, soprano
European Sinfonietta
Ed Spanjaard, conductor

Лог создания рипа

Exact Audio Copy V1.0 beta 3 from 29. August 2011
EAC extraction logfile from 22. October 2013, 23:39
Mozart / Concert Arias II, Spanjaard 2002
Used drive : TSSTcorpCDDVDW SE-208AB Adapter: 1 ID: 0
Read mode : SecureUtilize accurate stream : YesDefeat audio cache : YesMake use of C2 pointers : No
Read offset correction : 6Overread into Lead-In and Lead-Out : NoFill up missing offset samples with silence : YesDelete leading and trailing silent blocks : NoNull samples used in CRC calculations : YesUsed interface : Native Win32 interface for Win NT & 2000
Used output format : Monkey's Audio Lossless EncoderSelected bitrate : High Lossless CompressionQuality : HighAdd ID3 tag : YesCommand line compressor : K:\Program Files (x86)\Exact Audio Copy\Monkeys Audio\Monkey's Audio\MAC.exeAdditional command line options : -6 -V -T "ARTIST=%artist%" -T "TITLE=%title%" -T "ALBUM=%albumtitle%" -T "DATE=%year%" -T "TRACKNUMBER=%tracknr%" -T "GENRE=%genre%" -T "COMMENT=%comment%" -T "BAND=%albuminterpret%" -T "ALBUMARTIST=%albuminterpret%" -T "COMPOSER=%composer%" %haslyrics%--tag-from-file=LYRICS="%lyricsfile%"%haslyrics% -T "DISCNUMBER=%cdnumber%" -T "TOTALDISCS=%totalcds%" -T "TOTALTRACKS=%numtracks%" %hascover%--picture="%coverfile%"%hascover% %source% -o %dest%
TOC of the extracted CD
Track | Start | Length | Start sector | End sector --------------------------------------------------------- 1 | 0:00.00 | 10:05.26 | 0 | 45400 2 | 10:05.26 | 4:42.31 | 45401 | 66581 3 | 14:47.57 | 8:23.34 | 66582 | 104340 4 | 23:11.16 | 5:24.26 | 104341 | 128666 5 | 28:35.42 | 5:55.13 | 128667 | 155304 6 | 34:30.55 | 6:59.35 | 155305 | 186764 7 | 41:30.15 | 7:04.18 | 186765 | 218582 8 | 48:34.33 | 13:01.00 | 218583 | 277157 9 | 61:35.33 | 3:13.03 | 277158 | 291635
Range status and errors
Selected range
Filename I:\Foobar-EAC\Mozart - Concert Arias II, Spanjaard 2002.wav
Peak level 92.3 % Extraction speed 4.5 X Range quality 100.0 % Test CRC 47B63A26 Copy CRC 47B63A26 Copy OK
No errors occurred
AccurateRip summary
Track 1 accurately ripped (confidence 11) [5C8D4C40] (AR v2)Track 2 accurately ripped (confidence 11) [6930AFF5] (AR v2)Track 3 accurately ripped (confidence 11) [FD56C3D4] (AR v2)Track 4 accurately ripped (confidence 11) [CC500B0D] (AR v2)Track 5 accurately ripped (confidence 11) [D89A2465] (AR v2)Track 6 accurately ripped (confidence 11) [710D9CE7] (AR v2)Track 7 accurately ripped (confidence 11) [55132824] (AR v2)Track 8 accurately ripped (confidence 11) [3741923A] (AR v2)Track 9 accurately ripped (confidence 11) [6F31CE62] (AR v2)
All tracks accurately ripped
End of status report
---- CUETools DB Plugin V2.1.3
[CTDB TOCID: w5uy_X4ud1R15lcAWt5ttNc6P3s-] found, Submit result: w5uy_X4ud1R15lcAWt5ttNc6P3s- has been confirmed[4a00344f] (73/76) Accurately ripped[5c0522a9] (01/76) No match[8fe1b9ca] (01/76) No match[a4deec48] (01/76) No match
==== Log checksum 602AB980A4844AE09CB17DBE6EDBCD8D19F3037CAAE94168010A46502AC08D9A ====

Содержание индексной карты (.CUE)

REM GENRE VocalREM DATE 2002REM DISCID 8F0F3009REM COMMENT "ExactAudioCopy v1.0b3"PERFORMER "Mozart"TITLE " Concert Arias II, Spanjaard 2002"FILE "Mozart - Concert Arias II, Spanjaard 2002.ape" WAVE TRACK 01 AUDIO TITLE "Ch'io mi scordi di te...Non temer, amato bene, KV 505" PERFORMER "Mozart" INDEX 01 00:00:00 TRACK 02 AUDIO TITLE "Alma grande e nobil core, KV 578" PERFORMER "Mozart" INDEX 01 10:05:26 TRACK 03 AUDIO TITLE "A questo seno...Or che il cielo, KV 374" PERFORMER "Mozart" INDEX 01 14:47:57 TRACK 04 AUDIO TITLE "Basta vincesti...Ah, non lasciarmi KV 486a (295a)" PERFORMER "Mozart" INDEX 01 23:11:16 TRACK 05 AUDIO TITLE "Al desio , di chi t'adora, KV 577" PERFORMER "Mozart" INDEX 01 28:35:42 TRACK 06 AUDIO TITLE "Conservati fedele, KV 23" PERFORMER "Mozart" INDEX 01 34:30:55 TRACK 07 AUDIO TITLE "Voi avete un cor fedele, KV 217" PERFORMER "Mozart" INDEX 01 41:30:15 TRACK 08 AUDIO TITLE "Misero mi... Misero pargoletto, KV 77" PERFORMER "Mozart" INDEX 01 48:34:33 TRACK 09 AUDIO TITLE "Nehmt meinem Dank, KV 383 " PERFORMER "Mozart" INDEX 01 61:35:33



Показать сообщения:    

Текущее время: 06-Дек 20:58

Часовой пояс: UTC + 3


Вы не можете начинать темы
Вы не можете отвечать на сообщения
Вы не можете редактировать свои сообщения
Вы не можете удалять свои сообщения
Вы не можете голосовать в опросах
Вы не можете прикреплять файлы к сообщениям
Вы не можете скачивать файлы