(Classical) Русский праздник - Ансамбль "Финист Балалайка" и Василий Савенко - Шедевры классической и народной музыки - 2009, FLAC (image+.cue) lossless


 

[Цитировать]

Русский праздник
Ансамбль "Финист Балалайка" и Василий Савенко
Шедевры классической и народной музыки

Жанр: Classical
Страна-производитель диска: Россия
Год издания диска: 2009
Издатель (лейбл): Orpheus
Аудиокодек: FLAC
Тип рипа: image+.cue
Битрейт аудио: lossless
Продолжительность: 58:14
Источник: собственный рип
Наличие сканов в содержимом раздачи: да
Исполнители:
Ансамбль народных инструментов "Финист Балалайка"
Художественный руководитель - народный артист России Игорь Обликин
Василий Савенко, бас-баритон

Треклист

1. "Ярмарка игрушек" из сюиты "Русские игрушки" (И. Обликин) - 01:53"2. "О, если б мог выразить в звуке" (Л. Малашкин - Г.Лишин) - 02:373. "Утро туманное" ("В дороге")(В.Абаза - И.Тургенев) - 03:494. "Элегия" (М.Яковлев - А.Дельвиг) - 04:285. "Красный сарафан" (А.Варламов) - 03:346. "Персидская песня" соч. 34/9 (Антон Рубинштейн - М.Шафи, перевод П.И.Чайковского) - 04:267. "Сомнение" (М.Глинка - Н.Кукольник) - 05:008. "Песня Мефистофеля в погребке Ауэрбаха" (М.Мусоргский - В.Гете, перевод А.Струговщикова) - 03:129. "Однозвучно гремит колокольчик" (А.Гурилев - И.Макаров) - 04:4710. "Вечерок близ Диканьки" (И.Обликин) - 03:3811. "Нiч яка мiсячна (украинская народная песня, стихи - М.Старицкий)" - 03:3312. "Снiжок iде" (украинская народная песня, обработка - Б.Лятошинский) - 01:4013. "Дивлюсь я на небо" (В.Заремба - М.Петренко) - 03:0414. "Потешка" (И.Обликин) - 04:1315. "Степь да степь кругом..." (русская народная песня) - 05:3516. "Вдоль по Питерской" (русская народная песня) - 02:36

Лог создания рипа

Exact Audio Copy V1.0 beta 6 from 9. April 2015
Отчёт EAC об извлечении, выполненном 29. июля 2015, 20:52
Vassily Savenko (Bass Baritone, UK) & Russian Folk Group "Feenist Balalayka" / Russian Celebration
Дисковод: ASUS DRW-24B5ST Adapter: 1 ID: 0
Режим чтения : ДостоверностьИспользование точного потока : ДаОтключение кэша аудио : ДаИспользование указателей C2 : Нет
Коррекция смещения при чтении : 6Способность читать области Lead-in и Lead-out : НетЗаполнение пропущенных сэмплов тишиной : ДаУдаление блоков с тишиной в начале и конце : НетПри вычислениях CRC использовались нулевые сэмплы : ДаИнтерфейс : Встроенный Win32-интерфейс для Win NT/2000
Выходной формат : Пользовательский кодировщикВыбранный битрейт : 128 kBit/sКачество : ВысокийДобавление ID3-тега : НетУтилита сжатия : C:\Program Files (x86)\Exact Audio Copy\flac-1.3.1-win\win64\flac.exeДополнительные параметры : -V -8 -T "Date=%year%" -T "Genre=%genre%" %source%
TOC извлечённого CD
Трек | Старт | Длительность | Начальный сектор | Конечный сектор --------------------------------------------------------------------- 1 | 0:00.00 | 1:53.11 | 0 | 8485 2 | 1:53.11 | 2:36.72 | 8486 | 20257 3 | 4:30.08 | 3:49.53 | 20258 | 37485 4 | 8:19.61 | 4:28.17 | 37486 | 57602 5 | 12:48.03 | 3:34.25 | 57603 | 73677 6 | 16:22.28 | 4:26.43 | 73678 | 93670 7 | 20:48.71 | 5:00.00 | 93671 | 116170 8 | 25:48.71 | 3:12.52 | 116171 | 130622 9 | 29:01.48 | 4:47.72 | 130623 | 152219 10 | 33:49.45 | 3:38.48 | 152220 | 168617 11 | 37:28.18 | 3:33.63 | 168618 | 184655 12 | 41:02.06 | 1:40.56 | 184656 | 192211 13 | 42:42.62 | 3:04.56 | 192212 | 206067 14 | 45:47.43 | 4:13.67 | 206068 | 225109 15 | 50:01.35 | 5:35.67 | 225110 | 250301 16 | 55:37.27 | 2:36.19 | 250302 | 262020
Характеристики диапазона извлечения и сообщения об ошибках
Выбранный диапазон
Имя файла C:\Users\Тарик\Music\Русский праздник\Vassily Savenko (Bass Baritone, UK) & Russian Folk Group ''Feenist Balalayka'' - Russian Celebration.wav
Пиковый уровень 94.3 % Скорость извлечения 9.0 X Качество диапазона 99.9 % CRC теста 2F9097ED CRC копии 2F9097ED Копирование... OK
Ошибок не произошло
AccurateRip: сводка
Трек 1 отсутствует в базе данныхТрек 2 отсутствует в базе данныхТрек 3 отсутствует в базе данныхТрек 4 отсутствует в базе данныхТрек 5 отсутствует в базе данныхТрек 6 отсутствует в базе данныхТрек 7 отсутствует в базе данныхТрек 8 отсутствует в базе данныхТрек 9 отсутствует в базе данныхТрек 10 отсутствует в базе данныхТрек 11 отсутствует в базе данныхТрек 12 отсутствует в базе данныхТрек 13 отсутствует в базе данныхТрек 14 отсутствует в базе данныхТрек 15 отсутствует в базе данныхТрек 16 отсутствует в базе данных
Ни одного трека нет в базе AccurateRip
Конец отчёта
==== Контрольная сумма отчёта 77830242EEBADBD287234C9CF2EF9490F9ABCA94161F8677C9CB6F7FCFA7185A ====

Содержание индексной карты (.CUE)

REM GENRE ClassicalREM DATE 2009REM DISCID BD0DA510REM COMMENT "ExactAudioCopy v1.0b6"PERFORMER "Vassily Savenko (Bass Baritone, UK) & Russian Folk Group 'Feenist Balalayka'"TITLE "Russian Celebration"FILE "Vassily Savenko (Bass Baritone, UK) & Russian Folk Group ''Feenist Balalayka'' - Russian Celebration.flac" WAVE TRACK 01 AUDIO TITLE "«The Fair of the Russian Toys» from the suite «The Russian Toys» (I. Oblikin)" PERFORMER "Feenist Balalayka" FLAGS DCP INDEX 01 00:00:00 TRACK 02 AUDIO TITLE "«Oh, if only I could express in my song» (L. Malashkin G. Lishin)" PERFORMER "Vassily Savenko & Feenist Balalayka" FLAGS DCP INDEX 01 01:53:11 TRACK 03 AUDIO TITLE "«Misty Morning» (Utro tumannoye) (V. Abaza I. Turgenev)" PERFORMER "Vassily Savenko & Feenist Balalayka" FLAGS DCP INDEX 01 04:30:08 TRACK 04 AUDIO TITLE "«Elegy» (M. Yakovlev A. Delvig)" PERFORMER "Vassily Savenko & Feenist Balalayka" FLAGS DCP INDEX 01 08:19:61 TRACK 05 AUDIO TITLE "«The red sarafan» (A. Varlamov)" PERFORMER "Feenist Balalayka" FLAGS DCP INDEX 01 12:48:03 TRACK 06 AUDIO TITLE "«Persian Song» op. 34/9 from the song cycle «Persian Songs» (Anton Rubinstein)" PERFORMER "Vassily Savenko & Feenist Balalayka" FLAGS DCP INDEX 01 16:22:28 TRACK 07 AUDIO TITLE "«Doubt» (M. Glinka N. Kukolnik)" PERFORMER "Vassily Savenko & Feenist Balalayka" FLAGS DCP INDEX 01 20:48:71 TRACK 08 AUDIO TITLE "«Mephistopheles Song of the flea» (M. Mussorgsky - After Goethe)" PERFORMER "Vassily Savenko & Feenist Balalayka" FLAGS DCP INDEX 01 25:48:71 TRACK 09 AUDIO TITLE "«Monotonously rings the bell» (A. Gurilyov I. Makarov)" PERFORMER "Vassily Savenko & Feenist Balalayka" FLAGS DCP INDEX 01 29:01:48 TRACK 10 AUDIO TITLE "«The Evening near Dikan'ka» (I. Oblikin) " PERFORMER "Feenist Balalayka" FLAGS DCP INDEX 01 33:49:45 TRACK 11 AUDIO TITLE "«Night of the full Moon» (Ukrainian folk song, lyrics by M. Staritsky) " PERFORMER "Vassily Savenko & Feenist Balalayka" FLAGS DCP INDEX 01 37:28:18 TRACK 12 AUDIO TITLE "«The snow is falling» (Ukrainian folk song, arrang. by B. Lyatoshinsky)" PERFORMER "Vassily Savenko & Feenist Balalayka" FLAGS DCP INDEX 01 41:02:06 TRACK 13 AUDIO TITLE "«I look up at the sky» (V. Zaremba M. Petrenko)" PERFORMER "Vassily Savenko & Feenist Balalayka" FLAGS DCP INDEX 01 42:42:62 TRACK 14 AUDIO TITLE "«Amusement» (I. Oblikin)" PERFORMER "Feenist Balalayka" FLAGS DCP INDEX 01 45:47:43 TRACK 15 AUDIO TITLE "«Steppe is all around» (Russian folk song)" PERFORMER "Vassily Savenko & Feenist Balalayka" FLAGS DCP INDEX 01 50:01:35 TRACK 16 AUDIO TITLE "«Down Peterskaya street» (Russian folk song)" PERFORMER "Vassily Savenko & Feenist Balalayka" FLAGS DCP INDEX 01 55:37:27



Показать сообщения:    

Текущее время: 08-Дек 14:54

Часовой пояс: UTC + 3


Вы не можете начинать темы
Вы не можете отвечать на сообщения
Вы не можете редактировать свои сообщения
Вы не можете удалять свои сообщения
Вы не можете голосовать в опросах
Вы не можете прикреплять файлы к сообщениям
Вы не можете скачивать файлы