(Classical) The Hilliard Ensemble · The Old Hall Manuscript (Queldryk, Power, Bittering, Damett, Pycard, Pennard, etc.) · 1991, FLAC (tracks+.cue) lossless


 

[Цитировать]

The Old Hall Manuscript
Жанр: classical
Страна-производитель диска: UK
Год издания диска: 1991
Издатель: EMI Classics
Номер по каталогу: CDC 7 541112 6
Дата записи: сентябрь 1990
Аудиокодек: FLAC
Тип рипа: tracks+.cue
Битрейт аудио: lossless
Продолжительность: 01:05:02
Источник: скачано с what.cd
Буклет в содержимом раздачи отсутствует
Исполнители: The Hilliard Ensemble

Треклист

01. Gloria (2:20)
02. Pia Mater (4:09)
03. Nesciens Mater (0:40)
04. Nesciens Mater (2:28)
05. Beata Dei Genitrix (2:24)
06. Gloria (1:59)
07. Credo (3:08)
08. En Katerine Solennia (3:54)
09. Credo (3:09)
10. Beata Progenies (0:36)
11. Beata Progenies (1:16)
12. Sanctus (2:31)
13. Ave Regina Celorum (1:25)
14. Ave Regina Celorum (2:36)
15. Sanctus (4:49)
16. Agnus Dei (2:16)
17. Qualis Est Dilectus (3:39)
18. Agnus Dei (4:07)
19. Alma Redemptoris Mater (2:09)
20. Ascendit Christus (5:03)
21. Agnus Dei (2:20)
22. Are Post Libamina (1:38)
23. Stella Celi (1:45)
24. Salve Porta Paradisi (1:48)
25. Post Missarum Solnnia (2:54)

Лог создания рипа

Exact Audio Copy V1.0 beta 3 from 29. August 2011
EAC extraction logfile from 29. September 2013, 12:37
The Hilliard Ensemble / The Old Hall Manuscript
Used drive : HL-DT-STDVDRAM GSA-U20N Adapter: 2 ID: 0
Read mode : SecureUtilize accurate stream : YesDefeat audio cache : YesMake use of C2 pointers : No
Read offset correction : 667Overread into Lead-In and Lead-Out : NoFill up missing offset samples with silence : YesDelete leading and trailing silent blocks : NoNull samples used in CRC calculations : YesUsed interface : Native Win32 interface for Win NT & 2000Gap handling : Appended to previous track
Used output format : User Defined EncoderSelected bitrate : 1024 kBit/sQuality : HighAdd ID3 tag : NoCommand line compressor : C:\Program Files\Exact Audio Copy\Flac\flac.exeAdditional command line options : -8 -V -T "ARTIST=%artist%" -T "TITLE=%title%" -T "ALBUM=%albumtitle%" -T "DATE=%year%" -T "TRACKNUMBER=%tracknr%" -T "GENRE=%genre%" -T "PERFORMER=%albuminterpret%" -T "COMPOSER=%composer%" %haslyrics%--tag-from-file=LYRICS="%lyricsfile%"%haslyrics% -T "ALBUMARTIST=%albumartist%" -T "DISCNUMBER=%cdnumber%" -T "TOTALDISCS=%totalcds%" -T "TOTALTRACKS=%numtracks%" -T "COMMENT=%comment%" %source% -o %dest%
TOC of the extracted CD
Track | Start | Length | Start sector | End sector --------------------------------------------------------- 1 | 0:00.33 | 2:19.67 | 33 | 10524 2 | 2:20.25 | 4:08.58 | 10525 | 29182 3 | 6:29.08 | 0:39.40 | 29183 | 32147 4 | 7:08.48 | 2:27.67 | 32148 | 43239 5 | 9:36.40 | 2:24.03 | 43240 | 54042 6 | 12:00.43 | 1:59.12 | 54043 | 62979 7 | 13:59.55 | 3:07.38 | 62980 | 77042 8 | 17:07.18 | 3:53.55 | 77043 | 94572 9 | 21:00.73 | 3:09.22 | 94573 | 108769 10 | 24:10.20 | 0:36.15 | 108770 | 111484 11 | 24:46.35 | 1:15.43 | 111485 | 117152 12 | 26:02.03 | 2:30.57 | 117153 | 128459 13 | 28:32.60 | 1:24.55 | 128460 | 134814 14 | 29:57.40 | 2:35.68 | 134815 | 146507 15 | 32:33.33 | 4:49.37 | 146508 | 168219 16 | 37:22.70 | 2:16.33 | 168220 | 178452 17 | 39:39.28 | 3:38.45 | 178453 | 194847 18 | 43:17.73 | 4:07.15 | 194848 | 213387 19 | 47:25.13 | 2:09.22 | 213388 | 223084 20 | 49:34.35 | 5:03.08 | 223085 | 245817 21 | 54:37.43 | 2:19.45 | 245818 | 256287 22 | 56:57.13 | 1:38.27 | 256288 | 263664 23 | 58:35.40 | 1:44.53 | 263665 | 271517 24 | 60:20.18 | 1:48.15 | 271518 | 279632 25 | 62:08.33 | 2:53.42 | 279633 | 292649
Track 1
Filename Z:\home\aura\flac\01 - Gloria.wav
Pre-gap length 0:00:02.44
Peak level 72.1 % Extraction speed 2.2 X Track quality 100.0 % Test CRC 2F93EFE9 Copy CRC 2F93EFE9 Accurately ripped (confidence 5) [91B00D4C] (AR v2) Copy OK
Track 2
Filename Z:\home\aura\flac\02 - Pia Mater.wav
Pre-gap length 0:00:00.02
Peak level 35.4 % Extraction speed 2.6 X Track quality 100.0 % Test CRC 251354DE Copy CRC 251354DE Accurately ripped (confidence 5) [3434A7DD] (AR v2) Copy OK
Track 3
Filename Z:\home\aura\flac\03 - Nesciens Mater.wav
Pre-gap length 0:00:00.04
Peak level 25.2 % Extraction speed 1.0 X Track quality 99.7 % Test CRC 021443FF Copy CRC 021443FF Accurately ripped (confidence 5) [CB22958A] (AR v2) Copy OK
Track 4
Filename Z:\home\aura\flac\04 - Nesciens Mater.wav
Pre-gap length 0:00:00.04
Peak level 41.1 % Extraction speed 2.6 X Track quality 100.0 % Test CRC C78BEE32 Copy CRC C78BEE32 Accurately ripped (confidence 5) [07C93AC0] (AR v2) Copy OK
Track 5
Filename Z:\home\aura\flac\05 - Beata Dei Genitrix.wav
Pre-gap length 0:00:00.02
Peak level 54.6 % Extraction speed 2.7 X Track quality 100.0 % Test CRC A02B409A Copy CRC A02B409A Accurately ripped (confidence 5) [0E46E21B] (AR v2) Copy OK
Track 6
Filename Z:\home\aura\flac\06 - Gloria.wav
Pre-gap length 0:00:00.04
Peak level 90.9 % Extraction speed 2.2 X Track quality 99.9 % Test CRC 548AC66B Copy CRC 548AC66B Accurately ripped (confidence 5) [3928DDB9] (AR v2) Copy OK
Track 7
Filename Z:\home\aura\flac\07 - Credo.wav
Pre-gap length 0:00:00.02
Peak level 39.8 % Extraction speed 3.0 X Track quality 100.0 % Test CRC 1BF6623B Copy CRC 1BF6623B Accurately ripped (confidence 5) [55E154B9] (AR v2) Copy OK
Track 8
Filename Z:\home\aura\flac\08 - En Katerine Solennia.wav
Pre-gap length 0:00:00.04
Peak level 48.1 % Extraction speed 2.9 X Track quality 99.9 % Test CRC 71CFE125 Copy CRC 71CFE125 Accurately ripped (confidence 5) [63AE4840] (AR v2) Copy OK
Track 9
Filename Z:\home\aura\flac\09 - Credo.wav
Pre-gap length 0:00:00.04
Peak level 64.2 % Extraction speed 3.4 X Track quality 100.0 % Test CRC 1AEF49E0 Copy CRC 1AEF49E0 Accurately ripped (confidence 5) [747B7964] (AR v2) Copy OK
Track 10
Filename Z:\home\aura\flac\10 - Beata Progenies.wav
Pre-gap length 0:00:00.02
Peak level 18.9 % Extraction speed 1.3 X Track quality 99.7 % Test CRC 01EE0189 Copy CRC 01EE0189 Accurately ripped (confidence 5) [1CD7166A] (AR v2) Copy OK
Track 11
Filename Z:\home\aura\flac\11 - Beata Progenies.wav
Pre-gap length 0:00:00.02
Peak level 40.1 % Extraction speed 2.7 X Track quality 100.0 % Test CRC 3D425003 Copy CRC 3D425003 Accurately ripped (confidence 5) [8F79A93E] (AR v2) Copy OK
Track 12
Filename Z:\home\aura\flac\12 - Sanctus.wav
Pre-gap length 0:00:00.04
Peak level 76.4 % Extraction speed 3.4 X Track quality 100.0 % Test CRC A1A66915 Copy CRC A1A66915 Accurately ripped (confidence 5) [7A5E9D5C] (AR v2) Copy OK
Track 13
Filename Z:\home\aura\flac\13 - Ave Regina Celorum.wav
Pre-gap length 0:00:00.02
Peak level 44.3 % Extraction speed 3.1 X Track quality 100.0 % Test CRC 3864572A Copy CRC 3864572A Accurately ripped (confidence 5) [4A769446] (AR v2) Copy OK
Track 14
Filename Z:\home\aura\flac\14 - Ave Regina Celorum.wav
Pre-gap length 0:00:00.02
Peak level 45.0 % Extraction speed 3.6 X Track quality 100.0 % Test CRC 98ED93D2 Copy CRC 98ED93D2 Accurately ripped (confidence 5) [039F101D] (AR v2) Copy OK
Track 15
Filename Z:\home\aura\flac\15 - Sanctus.wav
Pre-gap length 0:00:00.04
Peak level 54.4 % Extraction speed 3.7 X Track quality 99.9 % Test CRC 6D3EA358 Copy CRC 6D3EA358 Accurately ripped (confidence 5) [C7D82617] (AR v2) Copy OK
Track 16
Filename Z:\home\aura\flac\16 - Agnus Dei.wav
Pre-gap length 0:00:00.02
Peak level 38.9 % Extraction speed 3.1 X Track quality 99.9 % Test CRC 39EFC80A Copy CRC 39EFC80A Accurately ripped (confidence 5) [5983A798] (AR v2) Copy OK
Track 17
Filename Z:\home\aura\flac\17 - Qualis Est Dilectus.wav
Pre-gap length 0:00:00.04
Peak level 43.1 % Extraction speed 4.3 X Track quality 100.0 % Test CRC 1B5CB001 Copy CRC 1B5CB001 Accurately ripped (confidence 5) [42BBCDC5] (AR v2) Copy OK
Track 18
Filename Z:\home\aura\flac\18 - Agnus Dei.wav
Pre-gap length 0:00:00.04
Peak level 39.5 % Extraction speed 4.4 X Track quality 100.0 % Test CRC EC174EDC Copy CRC EC174EDC Accurately ripped (confidence 4) [5B950AD6] (AR v2) Copy OK
Track 19
Filename Z:\home\aura\flac\19 - Alma Redemptoris Mater.wav
Pre-gap length 0:00:00.04
Peak level 45.8 % Extraction speed 4.1 X Track quality 100.0 % Test CRC 22011C35 Copy CRC 22011C35 Accurately ripped (confidence 5) [0A7CBA78] (AR v2) Copy OK
Track 20
Filename Z:\home\aura\flac\20 - Ascendit Christus.wav
Pre-gap length 0:00:00.02
Peak level 79.5 % Extraction speed 4.3 X Track quality 99.9 % Test CRC 30422056 Copy CRC 30422056 Accurately ripped (confidence 5) [4A3D9AB5] (AR v2) Copy OK
Track 21
Filename Z:\home\aura\flac\21 - Agnus Dei.wav
Pre-gap length 0:00:00.04
Peak level 53.4 % Extraction speed 4.4 X Track quality 100.0 % Test CRC 7E216C84 Copy CRC 7E216C84 Accurately ripped (confidence 5) [6B202A6C] (AR v2) Copy OK
Track 22
Filename Z:\home\aura\flac\22 - Are Post Libamina.wav
Pre-gap length 0:00:00.04
Peak level 94.0 % Extraction speed 4.1 X Track quality 100.0 % Test CRC DA13C8C3 Copy CRC DA13C8C3 Accurately ripped (confidence 5) [F7DF1850] (AR v2) Copy OK
Track 23
Filename Z:\home\aura\flac\23 - Stella Celi.wav
Pre-gap length 0:00:00.02
Peak level 37.5 % Extraction speed 4.2 X Track quality 100.0 % Test CRC 350F3FF9 Copy CRC 350F3FF9 Accurately ripped (confidence 5) [1C82B12C] (AR v2) Copy OK
Track 24
Filename Z:\home\aura\flac\24 - Salve Porta Paradisi.wav
Pre-gap length 0:00:00.04
Peak level 53.4 % Extraction speed 3.2 X Track quality 99.9 % Test CRC F5671217 Copy CRC F5671217 Accurately ripped (confidence 5) [93EFD450] (AR v2) Copy OK
Track 25
Filename Z:\home\aura\flac\25 - Post Missarum Solnnia.wav
Pre-gap length 0:00:00.04
Peak level 60.0 % Extraction speed 4.7 X Track quality 100.0 % Test CRC 292EB0AA Copy CRC 292EB0AA Accurately ripped (confidence 4) [0417EA98] (AR v2) Copy OK
All tracks accurately ripped
No errors occurred
End of status report
==== Log checksum DF3D2EBDE977BF04D2599A2880AE796296B3BE8DEF81D6CE961D1AE85D34A7A5 ====

Содержание индексной карты (.CUE)

REM DATE 1991REM DISCID 7D0F3E19REM COMMENT "ExactAudioCopy v1.0b3"PERFORMER "The Hilliard Ensemble"TITLE "The Old Hall Manuscript"FILE "01. Gloria.wav" WAVE TRACK 01 AUDIO TITLE "Gloria" PERFORMER "The Hilliard Ensemble" PREGAP 00:00:33 INDEX 01 00:00:00 TRACK 02 AUDIO TITLE "Pia Mater" PERFORMER "The Hilliard Ensemble" INDEX 00 02:19:65FILE "02. Pia Mater.wav" WAVE INDEX 01 00:00:00 TRACK 03 AUDIO TITLE "Nesciens Mater" PERFORMER "The Hilliard Ensemble" INDEX 00 04:08:55FILE "03. Nesciens Mater.wav" WAVE INDEX 01 00:00:00 TRACK 04 AUDIO TITLE "Nesciens Mater" PERFORMER "The Hilliard Ensemble" INDEX 00 00:39:37FILE "04. Nesciens Mater.wav" WAVE INDEX 01 00:00:00 TRACK 05 AUDIO TITLE "Beata Dei Genitrix" PERFORMER "The Hilliard Ensemble" INDEX 00 02:27:65FILE "05. Beata Dei Genitrix.wav" WAVE INDEX 01 00:00:00 TRACK 06 AUDIO TITLE "Gloria" PERFORMER "The Hilliard Ensemble" INDEX 00 02:24:00FILE "06. Gloria.wav" WAVE INDEX 01 00:00:00 TRACK 07 AUDIO TITLE "Credo" PERFORMER "The Hilliard Ensemble" INDEX 00 01:59:10FILE "07. Credo.wav" WAVE INDEX 01 00:00:00 TRACK 08 AUDIO TITLE "En Katerine Solennia" PERFORMER "The Hilliard Ensemble" INDEX 00 03:07:35FILE "08. En Katerine Solennia.wav" WAVE INDEX 01 00:00:00 TRACK 09 AUDIO TITLE "Credo" PERFORMER "The Hilliard Ensemble" INDEX 00 03:53:52FILE "09. Credo.wav" WAVE INDEX 01 00:00:00 TRACK 10 AUDIO TITLE "Beata Progenies" PERFORMER "The Hilliard Ensemble" INDEX 00 03:09:20FILE "10. Beata Progenies.wav" WAVE INDEX 01 00:00:00 TRACK 11 AUDIO TITLE "Beata Progenies" PERFORMER "The Hilliard Ensemble" INDEX 00 00:36:13FILE "11. Beata Progenies.wav" WAVE INDEX 01 00:00:00 TRACK 12 AUDIO TITLE "Sanctus" PERFORMER "The Hilliard Ensemble" INDEX 00 01:15:40FILE "12. Sanctus.wav" WAVE INDEX 01 00:00:00 TRACK 13 AUDIO TITLE "Ave Regina Celorum" PERFORMER "The Hilliard Ensemble" INDEX 00 02:30:55FILE "13. Ave Regina Celorum.wav" WAVE INDEX 01 00:00:00 TRACK 14 AUDIO TITLE "Ave Regina Celorum" PERFORMER "The Hilliard Ensemble" INDEX 00 01:24:53FILE "14. Ave Regina Celorum.wav" WAVE INDEX 01 00:00:00 TRACK 15 AUDIO TITLE "Sanctus" PERFORMER "The Hilliard Ensemble" INDEX 00 02:35:65FILE "15. Sanctus.wav" WAVE INDEX 01 00:00:00 TRACK 16 AUDIO TITLE "Agnus Dei" PERFORMER "The Hilliard Ensemble" INDEX 00 04:49:35FILE "16. Agnus Dei.wav" WAVE INDEX 01 00:00:00 TRACK 17 AUDIO TITLE "Qualis Est Dilectus" PERFORMER "The Hilliard Ensemble" INDEX 00 02:16:30FILE "17. Qualis Est Dilectus.wav" WAVE INDEX 01 00:00:00 TRACK 18 AUDIO TITLE "Agnus Dei" PERFORMER "The Hilliard Ensemble" INDEX 00 03:38:42FILE "18. Agnus Dei.wav" WAVE INDEX 01 00:00:00 TRACK 19 AUDIO TITLE "Alma Redemptoris Mater" PERFORMER "The Hilliard Ensemble" INDEX 00 04:07:12FILE "19. Alma Redemptoris Mater.wav" WAVE INDEX 01 00:00:00 TRACK 20 AUDIO TITLE "Ascendit Christus" PERFORMER "The Hilliard Ensemble" INDEX 00 02:09:20FILE "20. Ascendit Christus.wav" WAVE INDEX 01 00:00:00 TRACK 21 AUDIO TITLE "Agnus Dei" PERFORMER "The Hilliard Ensemble" INDEX 00 05:03:05FILE "21. Agnus Dei.wav" WAVE INDEX 01 00:00:00 TRACK 22 AUDIO TITLE "Are Post Libamina" PERFORMER "The Hilliard Ensemble" INDEX 00 02:19:42FILE "22. Are Post Libamina.wav" WAVE INDEX 01 00:00:00 TRACK 23 AUDIO TITLE "Stella Celi" PERFORMER "The Hilliard Ensemble" INDEX 00 01:38:25FILE "23. Stella Celi.wav" WAVE INDEX 01 00:00:00 TRACK 24 AUDIO TITLE "Salve Porta Paradisi" PERFORMER "The Hilliard Ensemble" INDEX 00 01:44:50FILE "24. Salve Porta Paradisi.wav" WAVE INDEX 01 00:00:00 TRACK 25 AUDIO TITLE "Post Missarum Solnnia" PERFORMER "The Hilliard Ensemble" INDEX 00 01:48:12FILE "25. Post Missarum Solnnia.wav" WAVE INDEX 01 00:00:00



Показать сообщения:    

Текущее время: 04-Дек 09:09

Часовой пояс: UTC + 3


Вы не можете начинать темы
Вы не можете отвечать на сообщения
Вы не можете редактировать свои сообщения
Вы не можете удалять свои сообщения
Вы не можете голосовать в опросах
Вы не можете прикреплять файлы к сообщениям
Вы не можете скачивать файлы