(Classical) Walter Frye · Northerne Wynde (Ferrara Ensemble, Crawford Young) · 2002, FLAC (tracks+.cue) lossless


 

[Цитировать]

Walter Frye
Northerne Wynde

Жанр: classical
Страна-производитель диска: Germany
Год издания диска: 2002
Издатель: Marc Aurel Edition
Номер по каталогу: MA 20018
Дата записи: 7–11 февраля 1999
Аудиокодек: FLAC
Тип рипа: tracks+.cue
Битрейт аудио: lossless
Продолжительность:
Источник: скачано с what.cd
Буклет в содержимом раздачи есть
Исполнители:
Ferrara Ensemble
Crawford Young (управление)

Треклист

Missa Flos regalis
01. Agnus Dei (4:58)
02. So ys emprentid (2:31)
03. Missa Sine nomine · Kyrie alternatim (4:41)
04. Missa Sine nomine · Gloria (4:42)
05. Missa Sine nomine · Credo (5:19)
06. Alas alas (3:27)
07. Missa Sine nomine · Sanctus (6:33)
08. Missa Sine nomine · Agnus Dei (5:25)
09. Ave regina coelorum (2:14)
10. O florens rosa (3:45)
Missa Summe trinitati
11. Gloria (5:37)
12. Credo (5:30)
13. Sanctus (5:54)
14. Agnus Dei (5:05)

Лог создания рипа

Exact Audio Copy V1.0 beta 3 from 29. August 2011
EAC extraction logfile from 28. September 2013, 18:28
Ferrara Ensemble / Northerne Wynde
Used drive : TSSTcorpDVD+-RW TS-U633F Adapter: 1 ID: 0
Read mode : SecureUtilize accurate stream : YesDefeat audio cache : YesMake use of C2 pointers : No
Read offset correction : 6Overread into Lead-In and Lead-Out : NoFill up missing offset samples with silence : YesDelete leading and trailing silent blocks : NoNull samples used in CRC calculations : YesUsed interface : Installed external ASPI interfaceGap handling : Appended to previous track
Used output format : User Defined EncoderSelected bitrate : 1024 kBit/sQuality : HighAdd ID3 tag : NoCommand line compressor : C:\Program Files\Exact Audio Copy\Flac\flac.exeAdditional command line options : -8 -V -T "ARTIST=%artist%" -T "TITLE=%title%" -T "ALBUM=%albumtitle%" -T "DATE=%year%" -T "TRACKNUMBER=%tracknr%" -T "GENRE=%genre%" -T "PERFORMER=%albuminterpret%" -T "COMPOSER=%composer%" %haslyrics%--tag-from-file=LYRICS="%lyricsfile%"%haslyrics% -T "ALBUMARTIST=%albumartist%" -T "DISCNUMBER=%cdnumber%" -T "TOTALDISCS=%totalcds%" -T "TOTALTRACKS=%numtracks%" -T "COMMENT=%comment%" %source% -o %dest%
TOC of the extracted CD
Track | Start | Length | Start sector | End sector --------------------------------------------------------- 1 | 0:00.00 | 4:58.22 | 0 | 22371 2 | 4:58.22 | 2:30.45 | 22372 | 33666 3 | 7:28.67 | 4:40.38 | 33667 | 54704 4 | 12:09.30 | 4:42.32 | 54705 | 75886 5 | 16:51.62 | 5:18.48 | 75887 | 99784 6 | 22:10.35 | 3:26.65 | 99785 | 115299 7 | 25:37.25 | 6:33.35 | 115300 | 144809 8 | 32:10.60 | 5:24.62 | 144810 | 169171 9 | 37:35.47 | 2:13.38 | 169172 | 179184 10 | 39:49.10 | 3:45.30 | 179185 | 196089 11 | 43:34.40 | 5:37.02 | 196090 | 221366 12 | 49:11.42 | 5:30.25 | 221367 | 246141 13 | 54:41.67 | 5:54.23 | 246142 | 272714 14 | 60:36.15 | 5:05.22 | 272715 | 295611
Track 1
Filename H:\flac\Ferrara Ensemble - Northerne Wynde (2002)\01 - Missa Flos Regalis, Agnus Dei.wav
Pre-gap length 0:00:02.00
Peak level 85.6 % Extraction speed 2.6 X Track quality 100.0 % Test CRC 2B162EDC Copy CRC 2B162EDC Accurately ripped (confidence 1) [7C7CD9F9] (AR v2) Copy OK
Track 2
Filename H:\flac\Ferrara Ensemble - Northerne Wynde (2002)\02 - So ys emprentid, Instrumental.wav
Peak level 17.7 % Extraction speed 2.5 X Track quality 100.0 % Test CRC 830BAC24 Copy CRC 830BAC24 Accurately ripped (confidence 1) [2D1274B9] (AR v2) Copy OK
Track 3
Filename H:\flac\Ferrara Ensemble - Northerne Wynde (2002)\03 - Missa Sine nomine, Kyrie alternatim.wav
Peak level 85.8 % Extraction speed 2.4 X Track quality 99.9 % Test CRC F08C7835 Copy CRC F08C7835 Accurately ripped (confidence 1) [41D97A98] (AR v2) Copy OK
Track 4
Filename H:\flac\Ferrara Ensemble - Northerne Wynde (2002)\04 - Missa Sine nomine, Gloria.wav
Peak level 99.9 % Extraction speed 3.2 X Track quality 100.0 % Test CRC 0B0AB3A2 Copy CRC 0B0AB3A2 Accurately ripped (confidence 1) [92F71F66] (AR v2) Copy OK
Track 5
Filename H:\flac\Ferrara Ensemble - Northerne Wynde (2002)\05 - Missa Sine nomine, Credo.wav
Peak level 67.4 % Extraction speed 3.4 X Track quality 100.0 % Test CRC 2C5401E9 Copy CRC 2C5401E9 Accurately ripped (confidence 1) [641A8E29] (AR v2) Copy OK
Track 6
Filename H:\flac\Ferrara Ensemble - Northerne Wynde (2002)\06 - Alas, Alas, Instrumental.wav
Peak level 26.2 % Extraction speed 3.4 X Track quality 100.0 % Test CRC 78E464E9 Copy CRC 78E464E9 Accurately ripped (confidence 1) [5068BE5F] (AR v2) Copy OK
Track 7
Filename H:\flac\Ferrara Ensemble - Northerne Wynde (2002)\07 - Missa Sine nomine, Sanctus.wav
Peak level 88.5 % Extraction speed 3.9 X Track quality 100.0 % Test CRC 8CDE87C4 Copy CRC 8CDE87C4 Accurately ripped (confidence 1) [022394F1] (AR v2) Copy OK
Track 8
Filename H:\flac\Ferrara Ensemble - Northerne Wynde (2002)\08 - Missa Sine nomine, Agnus Dei.wav
Peak level 82.3 % Extraction speed 4.0 X Track quality 100.0 % Test CRC 64EC10D9 Copy CRC 64EC10D9 Accurately ripped (confidence 1) [0E95C3CB] (AR v2) Copy OK
Track 9
Filename H:\flac\Ferrara Ensemble - Northerne Wynde (2002)\09 - Ave regina coelorum, Instumental.wav
Peak level 17.4 % Extraction speed 3.6 X Track quality 100.0 % Test CRC 06B57296 Copy CRC 06B57296 Accurately ripped (confidence 1) [BF0436D1] (AR v2) Copy OK
Track 10
Filename H:\flac\Ferrara Ensemble - Northerne Wynde (2002)\10 - O florens rosa.wav
Peak level 36.0 % Extraction speed 3.2 X Track quality 99.9 % Test CRC 7BC7D798 Copy CRC 7BC7D798 Accurately ripped (confidence 1) [438D9F9D] (AR v2) Copy OK
Track 11
Filename H:\flac\Ferrara Ensemble - Northerne Wynde (2002)\11 - Missa Summe trinitati, Gloria.wav
Peak level 70.4 % Extraction speed 4.5 X Track quality 100.0 % Test CRC 79658654 Copy CRC 79658654 Accurately ripped (confidence 1) [CD26A306] (AR v2) Copy OK
Track 12
Filename H:\flac\Ferrara Ensemble - Northerne Wynde (2002)\12 - Missa Summe trinitati, Credo.wav
Peak level 64.3 % Extraction speed 3.9 X Track quality 99.9 % Test CRC 63AAA855 Copy CRC 63AAA855 Accurately ripped (confidence 1) [AD259018] (AR v2) Copy OK
Track 13
Filename H:\flac\Ferrara Ensemble - Northerne Wynde (2002)\13 - Missa Summe trinitati, Sanctus.wav
Peak level 92.7 % Extraction speed 4.8 X Track quality 100.0 % Test CRC DCA8BFCB Copy CRC DCA8BFCB Accurately ripped (confidence 1) [AE4BB24B] (AR v2) Copy OK
Track 14
Filename H:\flac\Ferrara Ensemble - Northerne Wynde (2002)\14 - Missa Summe trinitati, Agnus Dei.wav
Peak level 90.5 % Extraction speed 4.9 X Track quality 100.0 % Test CRC 8EBCDA75 Copy CRC 8EBCDA75 Accurately ripped (confidence 1) [FD34EB15] (AR v2) Copy OK
All tracks accurately ripped
No errors occurred
End of status report
==== Log checksum 5E5F5320D19A73E21E3F8BDA49C03C263B46419B03F2DEC6654D169D0F9CDA8C ====

Содержание индексной карты (.CUE)

REM DATE 2002REM DISCID AD0F650EREM COMMENT "ExactAudioCopy v1.0b3"PERFORMER "Ferrara Ensemble"TITLE "Northerne Wynde"FILE "01. Missa Flos regalis · Agnus Dei.wav" WAVE TRACK 01 AUDIO TITLE "Missa Flos regalis · Agnus Dei" PERFORMER "Ferrara Ensemble" INDEX 01 00:00:00FILE "02. So ys emprentid.wav" WAVE TRACK 02 AUDIO TITLE "So ys emprentid" PERFORMER "Ferrara Ensemble" INDEX 01 00:00:00FILE "03. Missa Sine nomine · Kyrie alternatim.wav" WAVE TRACK 03 AUDIO TITLE "Missa Sine nomine · Kyrie alternatim" PERFORMER "Ferrara Ensemble" INDEX 01 00:00:00FILE "04. Missa Sine nomine · Gloria.wav" WAVE TRACK 04 AUDIO TITLE "Missa Sine nomine · Gloria" PERFORMER "Ferrara Ensemble" INDEX 01 00:00:00FILE "05. Missa Sine nomine · Credo.wav" WAVE TRACK 05 AUDIO TITLE "Missa Sine nomine · Credo" PERFORMER "Ferrara Ensemble" INDEX 01 00:00:00FILE "06. Alas alas.wav" WAVE TRACK 06 AUDIO TITLE "Alas alas" PERFORMER "Ferrara Ensemble" INDEX 01 00:00:00FILE "07. Missa Sine nomine · Sanctus.wav" WAVE TRACK 07 AUDIO TITLE "Missa Sine nomine · Sanctus" PERFORMER "Ferrara Ensemble" INDEX 01 00:00:00FILE "08. Missa Sine nomine · Agnus Dei.wav" WAVE TRACK 08 AUDIO TITLE "Missa Sine nomine · Agnus Dei" PERFORMER "Ferrara Ensemble" INDEX 01 00:00:00FILE "09. Ave regina coelorum.wav" WAVE TRACK 09 AUDIO TITLE "Ave regina coelorum" PERFORMER "Ferrara Ensemble" INDEX 01 00:00:00FILE "10. O florens rosa.wav" WAVE TRACK 10 AUDIO TITLE "O florens rosa" PERFORMER "Ferrara Ensemble" INDEX 01 00:00:00FILE "11. Missa Summe trinitati · Gloria.wav" WAVE TRACK 11 AUDIO TITLE "Missa Summe trinitati · Gloria" PERFORMER "Ferrara Ensemble" INDEX 01 00:00:00FILE "12. Missa Summe trinitati · Credo.wav" WAVE TRACK 12 AUDIO TITLE "Missa Summe trinitati · Credo" PERFORMER "Ferrara Ensemble" INDEX 01 00:00:00FILE "13. Missa Summe trinitati · Sanctus.wav" WAVE TRACK 13 AUDIO TITLE "Missa Summe trinitati · Sanctus" PERFORMER "Ferrara Ensemble" INDEX 01 00:00:00FILE "14. Missa Summe trinitati · Agnus Dei.wav" WAVE TRACK 14 AUDIO TITLE "Missa Summe trinitati · Agnus Dei" PERFORMER "Ferrara Ensemble" INDEX 01 00:00:00



Показать сообщения:    

Текущее время: 03-Дек 12:34

Часовой пояс: UTC + 3


Вы не можете начинать темы
Вы не можете отвечать на сообщения
Вы не можете редактировать свои сообщения
Вы не можете удалять свои сообщения
Вы не можете голосовать в опросах
Вы не можете прикреплять файлы к сообщениям
Вы не можете скачивать файлы