(Classical) Carlo Gesualdo - Madrigali, Libro III - The Kassiopeia Quintet - 2006, FLAC (image+.cue) lossless


 

[Цитировать]

Carlo Gesualdo - Madrigali, Libro III - The Kassiopeia Quintet
Жанр: Classical
Страна-производитель диска: The Netherlands
Год издания диска: 2006
Издатель (лейбл): Globe
Номер по каталогу: GLO 5223
Дата записи: 2004
Аудиокодек: FLAC
Тип рипа: image+.cue
Битрейт аудио: lossless
Продолжительность: 48:34
Источник: собственный рип
Наличие сканов в содержимом раздачи: да
Треклист:
Don Carlo Gesualdo (1566-1613)
Madrigali, Libro III (1596)
[1] Prima parte: Voi volete ch'io mora
[2] Seconda parte: Moro o non moro
[3] Ahi, desperata vita
[4] Languisco e moro
[5] Del bel de' bei vostri occhi
[6] Ahi, dispietata e cruda
[7] Dolce spirto d'Amore
[8] Prima parte: sospirava il mio core
[9] Seconda parte: O mal natti messaggi
[10] Veggio, si, dal mio sole
[11] Non t'amo o voce ingrata
[12] Prima parte: Meraviglia d'Amore
[13] Seconda parte: Ed ardo e vivo
[14] Crudelissima doglia
[15] Si piange, oime, la Donna del mio core
[16] Ancidetemi pur, grievi martiri
[17] Se vi miro pietosa
[18] Deh, se gia fu crudele
[19] Dolcissimo sospiro
[20] Donna, se m'anciedete
Исполнители:
The Kassiopeia Quintet
Orlanda Velez Isidro soprano
Matilde Castro soprano
Noa Frenkel alto
Jan-Willem Schaafsma tenor
Tido Visser basso
with Joseph W. Slesinger countertenor

Лог создания рипа

Exact Audio Copy V1.0 beta 3 from 29. August 2011
EAC extraction logfile from 3. July 2015, 1:32
The Kassiopeia Quintet / Gesualdo - Madrigali Libro III
Used drive : HL-DT-STDVDRAM GU70N Adapter: 0 ID: 0
Read mode : SecureUtilize accurate stream : YesDefeat audio cache : YesMake use of C2 pointers : No
Read offset correction : 48Overread into Lead-In and Lead-Out : NoFill up missing offset samples with silence : YesDelete leading and trailing silent blocks : NoNull samples used in CRC calculations : YesUsed interface : Native Win32 interface for Win NT & 2000
Used output format : User Defined EncoderSelected bitrate : 128 kBit/sQuality : HighAdd ID3 tag : NoCommand line compressor : C:\Program Files (x86)\Exact Audio Copy\Flac\flac.exeAdditional command line options : -V -8 -T "Date=%year%" -T "Genre=%genre%" %source%
TOC of the extracted CD
Track | Start | Length | Start sector | End sector --------------------------------------------------------- 1 | 0:00.00 | 1:16.00 | 0 | 5699 2 | 1:16.00 | 2:21.72 | 5700 | 16346 3 | 3:37.72 | 1:52.65 | 16347 | 24811 4 | 5:30.62 | 3:49.50 | 24812 | 42036 5 | 9:20.37 | 2:14.10 | 42037 | 52096 6 | 11:34.47 | 3:23.53 | 52097 | 67374 7 | 14:58.25 | 2:28.32 | 67375 | 78506 8 | 17:26.57 | 1:29.05 | 78507 | 85186 9 | 18:55.62 | 2:40.05 | 85187 | 97191 10 | 21:35.67 | 2:24.68 | 97192 | 108059 11 | 24:00.60 | 2:41.30 | 108060 | 120164 12 | 26:42.15 | 1:10.05 | 120165 | 125419 13 | 27:52.20 | 1:49.55 | 125420 | 133649 14 | 29:42.00 | 2:53.25 | 133650 | 146649 15 | 32:35.25 | 3:06.70 | 146650 | 160669 16 | 35:42.20 | 2:59.02 | 160670 | 174096 17 | 38:41.22 | 2:13.25 | 174097 | 184096 18 | 40:54.47 | 2:04.18 | 184097 | 193414 19 | 42:58.65 | 2:59.60 | 193415 | 206899 20 | 45:58.50 | 2:35.20 | 206900 | 218544
Range status and errors
Selected range
Filename C:\temp\Gesualdo - Madrigali Libro III - The Kassiopeia Quintet\Gesualdo - Madrigali Libro III.wav
Peak level 98.3 % Extraction speed 4.9 X Range quality 100.0 % Test CRC 70F9062E Copy CRC 70F9062E Copy OK
No errors occurred
AccurateRip summary
Track 1 cannot be verified as accurate (confidence 3) [2B6827CF], AccurateRip returned [6E52E308] (AR v2)Track 2 cannot be verified as accurate (confidence 3) [2D4E3460], AccurateRip returned [CD6FFEE2] (AR v2)Track 3 cannot be verified as accurate (confidence 3) [9F01E286], AccurateRip returned [9BB0E366] (AR v2)Track 4 cannot be verified as accurate (confidence 3) [5BC7E126], AccurateRip returned [35874E71] (AR v2)Track 5 cannot be verified as accurate (confidence 3) [89004824], AccurateRip returned [3023B62D] (AR v2)Track 6 cannot be verified as accurate (confidence 3) [B46670F0], AccurateRip returned [CE6B041F] (AR v2)Track 7 cannot be verified as accurate (confidence 3) [E16CA2B3], AccurateRip returned [6BCA1C8C] (AR v2)Track 8 cannot be verified as accurate (confidence 3) [0EC287B7], AccurateRip returned [7AFD4E5E] (AR v2)Track 9 cannot be verified as accurate (confidence 3) [946993EB], AccurateRip returned [85ADC493] (AR v2)Track 10 cannot be verified as accurate (confidence 3) [4AE1D0A7], AccurateRip returned [090DD3E2] (AR v2)Track 11 cannot be verified as accurate (confidence 3) [0594CE72], AccurateRip returned [BCF613DD] (AR v2)Track 12 cannot be verified as accurate (confidence 3) [6D1EB783], AccurateRip returned [970BC264] (AR v2)Track 13 cannot be verified as accurate (confidence 3) [DFC3D98B], AccurateRip returned [0204DBBB] (AR v2)Track 14 cannot be verified as accurate (confidence 3) [43FEE745], AccurateRip returned [7D3F7516] (AR v2)Track 15 cannot be verified as accurate (confidence 3) [4985B592], AccurateRip returned [E2F9F09F] (AR v2)Track 16 cannot be verified as accurate (confidence 3) [6F972B7B], AccurateRip returned [B1F974F1] (AR v2)Track 17 cannot be verified as accurate (confidence 3) [2721923F], AccurateRip returned [78D49420] (AR v2)Track 18 cannot be verified as accurate (confidence 3) [19995D1E], AccurateRip returned [6555E40B] (AR v2)Track 19 cannot be verified as accurate (confidence 3) [E40F58F0], AccurateRip returned [DF34B21F] (AR v2)Track 20 cannot be verified as accurate (confidence 3) [7DC42BDA], AccurateRip returned [7DF50B6E] (AR v2)
No tracks could be verified as accurateYou may have a different pressing from the one(s) in the database
End of status report
==== Log checksum 18BB87B34F4E56E9E276F9EC798569D19EE4EB1A371EB62BC82FD1B261D0543F ====



Показать сообщения:    

Текущее время: 20-Янв 16:54

Часовой пояс: UTC + 3


Вы не можете начинать темы
Вы не можете отвечать на сообщения
Вы не можете редактировать свои сообщения
Вы не можете удалять свои сообщения
Вы не можете голосовать в опросах
Вы не можете прикреплять файлы к сообщениям
Вы не можете скачивать файлы