(Classical) Вивальди, Скарлатти, Стеффани, Лотти, Бонончини, Манчини / Vivaldi, Scarlatti, Lotti, Steffani, Bononcini, Mancini - Love Cantatas - Silvia Vajente, Epoca Barocca - 2012, FLAC (image+.cue) lossless


 

[Цитировать]

Vivaldi, Scarlatti, Lotti, Steffani, Bononcini, Mancini - Love Cantatas - Silvia Vajente, Epoca Barocca
Жанр: Classical
Страна-производитель диска: Germany
Год издания диска: 2012
Издатель (лейбл): CPO
Номер по каталогу: cpo777583-2
Дата записи: 2007, 2008
Аудиокодек: FLAC
Тип рипа: image+.cue
Битрейт аудио: lossless
Продолжительность: 73:00
Источник: собственный рип
Наличие сканов в содержимом раздачи: да
Треклист:
Agostino Steffani (1654-1728)
[1]-[5] Spezza, Amor, l'arco
Antonio Vivaldi (1678-1741)
[6]-[9] All' ombra di sospetto
Antonio Lotti (1667-1740)
[10]-[13] Ti sento, o dio bendato
Domenico Scarlatti (1685-1757)
[14]-[16] Di Fille vendicarmi
Francesco Mancini (1672-1737)
[17]-[19] Quanto dolce e quell' ardore
Antonio Maria Bononcini (1677-1726)
[20]-[22] Idol mio, mio bel tesoro
Исполнители:
Silvia Vajente soprano
Epoca Barocca

Лог создания рипа

Exact Audio Copy V1.0 beta 3 from 29. August 2011
EAC extraction logfile from 4. October 2014, 17:17
Silvia Vajente, Epoca Barocca / Italian Love Cantatas
Used drive : HL-DT-STDVDRAM GU70N Adapter: 0 ID: 0
Read mode : SecureUtilize accurate stream : YesDefeat audio cache : YesMake use of C2 pointers : No
Read offset correction : 48Overread into Lead-In and Lead-Out : NoFill up missing offset samples with silence : YesDelete leading and trailing silent blocks : NoNull samples used in CRC calculations : YesUsed interface : Native Win32 interface for Win NT & 2000
Used output format : User Defined EncoderSelected bitrate : 128 kBit/sQuality : HighAdd ID3 tag : NoCommand line compressor : C:\Program Files (x86)\Exact Audio Copy\Flac\flac.exeAdditional command line options : -V -8 -T "Date=%year%" -T "Genre=%genre%" %source%
TOC of the extracted CD
Track | Start | Length | Start sector | End sector --------------------------------------------------------- 1 | 0:00.00 | 3:35.34 | 0 | 16158 2 | 3:35.34 | 1:06.66 | 16159 | 21174 3 | 4:42.25 | 5:07.53 | 21175 | 44252 4 | 9:50.03 | 0:48.32 | 44253 | 47884 5 | 10:38.35 | 5:12.49 | 47885 | 71333 6 | 15:51.09 | 0:18.32 | 71334 | 72715 7 | 16:09.41 | 5:20.30 | 72716 | 96745 8 | 21:29.71 | 0:51.37 | 96746 | 100607 9 | 22:21.33 | 3:57.48 | 100608 | 118430 10 | 26:19.06 | 4:56.05 | 118431 | 140635 11 | 31:15.11 | 0:44.01 | 140636 | 143936 12 | 31:59.12 | 1:42.24 | 143937 | 151610 13 | 33:41.36 | 4:49.09 | 151611 | 173294 14 | 38:30.45 | 5:23.10 | 173295 | 197529 15 | 43:53.55 | 1:02.42 | 197530 | 202221 16 | 44:56.22 | 4:21.24 | 202222 | 221820 17 | 49:17.46 | 5:57.66 | 221821 | 248661 18 | 55:15.37 | 0:44.38 | 248662 | 251999 19 | 56:00.00 | 4:32.28 | 252000 | 272427 20 | 60:32.28 | 6:41.47 | 272428 | 302549 21 | 67:14.00 | 0:40.23 | 302550 | 305572 22 | 67:54.23 | 5:05.63 | 305573 | 328510
Range status and errors
Selected range
Filename C:\temp\Italian Love Cantatas - Silvia Vajente, Epoca Barocca\Italian Love Cantatas.wav
Peak level 86.2 % Extraction speed 2.3 X Range quality 100.0 % Test CRC A33E17EB Copy CRC A33E17EB Copy OK
No errors occurred
AccurateRip summary
Track 1 accurately ripped (confidence 5) [CEAB2A15] (AR v2)Track 2 accurately ripped (confidence 5) [93812136] (AR v2)Track 3 accurately ripped (confidence 5) [FB2903F6] (AR v2)Track 4 accurately ripped (confidence 5) [3B7E2EF2] (AR v2)Track 5 accurately ripped (confidence 5) [E93A0CE3] (AR v2)Track 6 accurately ripped (confidence 5) [B9F301A2] (AR v2)Track 7 accurately ripped (confidence 5) [DCDFAD2C] (AR v2)Track 8 accurately ripped (confidence 5) [3E8B79D2] (AR v2)Track 9 accurately ripped (confidence 5) [E493A89B] (AR v2)Track 10 accurately ripped (confidence 5) [5364B7DA] (AR v2)Track 11 accurately ripped (confidence 5) [BB30766D] (AR v2)Track 12 accurately ripped (confidence 5) [BC355058] (AR v2)Track 13 accurately ripped (confidence 5) [346BBC6F] (AR v2)Track 14 accurately ripped (confidence 5) [E0505015] (AR v2)Track 15 accurately ripped (confidence 5) [6248962D] (AR v2)Track 16 accurately ripped (confidence 5) [2F12E880] (AR v2)Track 17 accurately ripped (confidence 5) [10FCCAC4] (AR v2)Track 18 accurately ripped (confidence 5) [E2306CE0] (AR v2)Track 19 accurately ripped (confidence 5) [363D9435] (AR v2)Track 20 accurately ripped (confidence 5) [91875393] (AR v2)Track 21 accurately ripped (confidence 5) [CA391087] (AR v2)Track 22 accurately ripped (confidence 5) [08892134] (AR v2)
All tracks accurately ripped
End of status report
==== Log checksum 3D73DE50CEC8AE7FF29FB5A45798694A5453CB549B95D5BF874375266091199F ====



Показать сообщения:    

Текущее время: 02-Дек 23:03

Часовой пояс: UTC + 3


Вы не можете начинать темы
Вы не можете отвечать на сообщения
Вы не можете редактировать свои сообщения
Вы не можете удалять свои сообщения
Вы не можете голосовать в опросах
Вы не можете прикреплять файлы к сообщениям
Вы не можете скачивать файлы