(Classical / vocal) Поёт Евгения Мирошниченко [2CD] - 2011, FLAC (tracks+.cue) lossless


 

[Цитировать]

Поёт Евгения Мирошниченко
Жанр: Classical / vocal
Страна-производитель диска: Украина
Год издания диска: 2011
Издатель (лейбл): Национальная Радиокомпания Украины
Номер по каталогу: EMF 001-01-11, EMF 001-02-11
Дата записи: 1960–1988
Аудиокодек: FLAC
Тип рипа: tracks+.cue
Битрейт аудио: lossless
Продолжительность: 2°25'18" (77'13"+68'05")
Источник: скачано с Rutracker (2011 г.)
Наличие сканов в содержимом раздачи: да

Треклист:
ДИСК 1 – AUDIO

скрытый текст

1. Джузеппе Верди. Сцена и ария Виолетты из 1 д. оперы «Травиата» – 6:53
2. Джузеппе Верди. Ария Джильды из 2 д. оперы «Риголетто» – 5:13
3. Джоаккино Россини. Каватина Розины из 2 д. оперы «Севильский цирюльник» – 6:14
4. Гаэтано Доницетти. Речитатив и каватина Лючии из 1 д. оперы «Лючия ди Ламмермур» – 8:07
5. Гаэтано Доницетти. Сцена и ария Лючии из 3 д. оперы «Лючия ди Ламмермур» – 15:10
6. Джузеппе Верди. Речитатив и каватина Эльвиры из 1 д. оперы «Эрнани» – 9:24
7. Лео Делиб. Сцена и легенда Лакме из оперы «Лакме» – 7:24
8. Георгий Майборода. Ария Йолан из 2 д. оперы «Милана» – 3:23
9. Николай Римский-Корсаков. Ария Марфы из 2 д. оперы «Царская невеста» – 6:06
10. Николай Римский-Корсаков. Сцена и ария Марфы из 4 д. оперы «Царская невеста» – 5:27
11. Вольфганг Амадей Моцарт. Ария Царицы ночи из оп. «Волшебная флейта» – 2:57

Сопровождение:
Оркестр Киевского государственного театра оперы и балета им. Т. Г. Шевченко (1, 3, 8), Камерный оркестр Киевского государственного театра оперы и балета им. Т. Г. Шевченко (2, 7, 11), Оркестр Большого театра СССР (4–6), Симфонический оркестр Украинского телевидения и радио (9, 10).
Дирижёры: Валентин Картацци (1), Павел Григоров (3, 8), Захарий Кожарский (2, 7, 11), Марк Эрмлер (4–6), Вадим Гнедаш (9, 10).
Даты записей: 1962 (1, 3, 8), 1968 (4–6), 1976 (2), 1977 (7, 11), 1986 (9, 10) гг.
Грамзаписи (4–6).
ДИСК 2 – AUDIO

скрытый текст

1. Александр Алябьев, сл. Антона Дельвига. «Соловей» – 3:51
2. Камиль Сен-Санс. «Соловей и роза» – 2:59
3. Юлиус Бенедикт. «Венецианский карнавал» – 8:00
4. Иоганн Штраус. «Сказки венского леса» – 5:31
5. Саффери. «Эхо» – 4:58
6. Николай Римский-Корсаков, сл. Алексея Кольцова. «Пленившись розой, соловей» – 7:52
7. Сергей Рахманинов, сл. Александра Пушкина. «Не пой, красавица» – 4:24
8. Сергей Рахманинов, сл. Глафиры Галиной. «Здесь хорошо» – 1:44
9. Клод Дебюсси, сл. Поля Верлена, рус. т. Михаила Улицкого. «Тени» – 3:27
10. Денеш Будаи. «Букет цветов из Ниццы» (из к/ф «Цветы из Ниццы») – 2:46
11. Петр Чайковский. «Сентиментальный вальс» – 4:11
12. Старинный французский романс «Смешного в жизни много» – 5:06
13. Иоганн Штраус. «Голубой Дунай» – 4:20
14–15. Рейнгольд Глиэр. Концерт для голоса с оркестром:
I. Andante – 8:30
II. Allegro – 5:25

Сопровождение:
Камерный оркестр Киевского государственного театра оперы и балета им. Т. Г. Шевченко (1–5), Симфонический оркестр Украинского телевидения и радио (6–9), Оркестр Киевского государственного театра оперы и балета им. Т. Г. Шевченко (10), Оркестр Большого театра СССР (14–15).
Дирижёры: Захарий Кожарский (1–5), Вадим Гнедаш (6–9), Марк Эрмлер (14–15).
Фортепиано: Розалия Трохман (11), Розалия Эльвова (12, 13).
Даты записей: 1960 (13) ,1963 (12), 1967 (10, 11), 1968 (14–15), 1975 (1, 5), 1976 (4), 1977 (2, 3), 1986 (6), 1988 (7–9) гг.
Записи из концертных залов (10–13). Грамзапись (14–15).
ДИСК 3 – DVD-VIDEO
Видеофильм «Евгения Мирошниченко навсегда». Реж. Олег Бийма (2011), на укр. яз.
(в раздачу не включён)

Доп. информация: В 2011 году к 80-летию со дня рождения одной из наиболее известных и действительно лучших украинских оперных певиц Евгении Семёновны Мирошниченко (1931–2009) был выпущен комплект из 3-х дисков (двух аудио и одного DVD-видео) «Поёт Евгения Мирошниченко». Аудиодиски включены в эту раздачу.

Лог создания рипаCD1

Exact Audio Copy V0.99 prebeta 5 from 4. May 2009
EAC extraction logfile from 9. June 2011, 23:11
Yevhenia Miroshnichenko / Singing - CD1
Used drive : PLEXTOR CD-R PX-W1210S Adapter: 6 ID: 4
Read mode : SecureUtilize accurate stream : YesDefeat audio cache : YesMake use of C2 pointers : No
Read offset correction : 98Overread into Lead-In and Lead-Out : NoFill up missing offset samples with silence : YesDelete leading and trailing silent blocks : NoNull samples used in CRC calculations : YesUsed interface : Installed external ASPI interfaceGap handling : Appended to previous track
Used output format : User Defined EncoderSelected bitrate : 256 kBit/sQuality : HighAdd ID3 tag : NoCommand line compressor : C:\Program Files\Exact Audio Copy\Flac\flac.exeAdditional command line options : -8 -V -T "ARTIST=%a" -T "TITLE=%t" -T "ALBUM=%g" -T "DATE=%y" -T "TRACKNUMBER=%n" -T "GENRE=%m" -T "COMMENT=EAC FLAC -8" %s
TOC of the extracted CD
Track | Start | Length | Start sector | End sector --------------------------------------------------------- 1 | 0:00.00 | 6:57.24 | 0 | 31298 2 | 6:57.24 | 5:17.09 | 31299 | 55082 3 | 12:14.33 | 6:18.03 | 55083 | 83435 4 | 18:32.36 | 8:08.01 | 83436 | 120036 5 | 26:40.37 | 15:35.48 | 120037 | 190209 6 | 42:16.10 | 9:22.13 | 190210 | 232372 7 | 51:38.23 | 7:28.12 | 232373 | 265984 8 | 59:06.35 | 3:27.50 | 265985 | 281559 9 | 62:34.10 | 6:10.00 | 281560 | 309309 10 | 68:44.10 | 5:31.00 | 309310 | 334134 11 | 74:15.10 | 2:57.44 | 334135 | 347453
Track 1
Filename D:\+DVD Projects\_SAMPLE\Yevhenia Miroshnichenko Singing\CD1\01. Yevhenia Miroshnichenko - Verdi - Scene and Aria (Violetta) - Traviata.wav
Pre-gap length 0:00:02.00
Peak level 94.4 % Track quality 100.0 % Test CRC 2DA3C3FE Copy CRC 2DA3C3FE Copy OK
Track 2
Filename D:\+DVD Projects\_SAMPLE\Yevhenia Miroshnichenko Singing\CD1\02. Yevhenia Miroshnichenko - Verdi - Aria (Gilda) - Rigoletto.wav
Pre-gap length 0:00:04.00
Peak level 94.1 % Track quality 99.9 % Test CRC 1E051BE8 Copy CRC 1E051BE8 Copy OK
Track 3
Filename D:\+DVD Projects\_SAMPLE\Yevhenia Miroshnichenko Singing\CD1\03. Yevhenia Miroshnichenko - Rossini - Cavatina (Rosina) - The Barber of Seville.wav
Pre-gap length 0:00:04.00
Peak level 66.8 % Track quality 100.0 % Test CRC 459791EE Copy CRC 459791EE Copy OK
Track 4
Filename D:\+DVD Projects\_SAMPLE\Yevhenia Miroshnichenko Singing\CD1\04. Yevhenia Miroshnichenko - Donizetti - Recitative and Cavatina (Lucia) - Lucia di Lammermoor.wav
Pre-gap length 0:00:04.00
Peak level 94.6 % Track quality 100.0 % Test CRC 2CF43662 Copy CRC 2CF43662 Copy OK
Track 5
Filename D:\+DVD Projects\_SAMPLE\Yevhenia Miroshnichenko Singing\CD1\05. Yevhenia Miroshnichenko - Donizetti - Scene and Aria (Lucia) - Lucia di Lammermoor.wav
Pre-gap length 0:00:04.00
Peak level 93.2 % Track quality 100.0 % Test CRC 40A7D337 Copy CRC 40A7D337 Copy OK
Track 6
Filename D:\+DVD Projects\_SAMPLE\Yevhenia Miroshnichenko Singing\CD1\06. Yevhenia Miroshnichenko - Verdi - Recitative and Cavatina (Elvira) - Ernani.wav
Pre-gap length 0:00:04.00
Peak level 94.4 % Track quality 99.9 % Test CRC 01CD2B43 Copy CRC 01CD2B43 Copy OK
Track 7
Filename D:\+DVD Projects\_SAMPLE\Yevhenia Miroshnichenko Singing\CD1\07. Yevhenia Miroshnichenko - Delibes - Scene and Legend (Lakme) - Lakme.wav
Pre-gap length 0:00:04.00
Peak level 94.2 % Track quality 100.0 % Test CRC E6E6E66E Copy CRC E6E6E66E Copy OK
Track 8
Filename D:\+DVD Projects\_SAMPLE\Yevhenia Miroshnichenko Singing\CD1\08. Yevhenia Miroshnichenko - Mayboroda - Aria (Yolan) - Mylana.wav
Pre-gap length 0:00:04.00
Peak level 94.5 % Track quality 100.0 % Test CRC 5E90574E Copy CRC 5E90574E Copy OK
Track 9
Filename D:\+DVD Projects\_SAMPLE\Yevhenia Miroshnichenko Singing\CD1\09. Yevhenia Miroshnichenko - Rimskiy-Korsakov - Aria (Marfa) - The Tsar's Bride.wav
Pre-gap length 0:00:04.00
Peak level 94.4 % Track quality 100.0 % Test CRC 979B4C7C Copy CRC 979B4C7C Copy OK
Track 10
Filename D:\+DVD Projects\_SAMPLE\Yevhenia Miroshnichenko Singing\CD1\10. Yevhenia Miroshnichenko - Rimskiy-Korsakov - Scene and Aria (Marfa) - The Tsar's Bride.wav
Pre-gap length 0:00:04.00
Peak level 94.4 % Track quality 100.0 % Test CRC DD9662A1 Copy CRC DD9662A1 Copy OK
Track 11
Filename D:\+DVD Projects\_SAMPLE\Yevhenia Miroshnichenko Singing\CD1\11. Yevhenia Miroshnichenko - Mozart - Aria (Queen of the Night) - The Magic Flute.wav
Pre-gap length 0:00:04.00
Peak level 94.0 % Track quality 100.0 % Test CRC D5FCAEF2 Copy CRC D5FCAEF2 Copy OK
No errors occurred
End of status report

CD1

Exact Audio Copy V0.99 prebeta 5 from 4. May 2009
EAC extraction logfile from 10. June 2011, 18:15
Yevhenia Miroshnichenko / Singing - CD2
Used drive : PLEXTOR CD-R PX-W1210S Adapter: 6 ID: 4
Read mode : SecureUtilize accurate stream : YesDefeat audio cache : YesMake use of C2 pointers : No
Read offset correction : 98Overread into Lead-In and Lead-Out : NoFill up missing offset samples with silence : YesDelete leading and trailing silent blocks : NoNull samples used in CRC calculations : YesUsed interface : Installed external ASPI interfaceGap handling : Appended to previous track
Used output format : User Defined EncoderSelected bitrate : 256 kBit/sQuality : HighAdd ID3 tag : NoCommand line compressor : C:\Program Files\Exact Audio Copy\Flac\flac.exeAdditional command line options : -8 -V -T "ARTIST=%a" -T "TITLE=%t" -T "ALBUM=%g" -T "DATE=%y" -T "TRACKNUMBER=%n" -T "GENRE=%m" -T "COMMENT=EAC FLAC -8" %s
TOC of the extracted CD
Track | Start | Length | Start sector | End sector --------------------------------------------------------- 1 | 0:00.00 | 3:53.25 | 0 | 17499 2 | 3:53.25 | 3:01.00 | 17500 | 31074 3 | 6:54.25 | 8:02.07 | 31075 | 67231 4 | 14:56.32 | 5:33.07 | 67232 | 92213 5 | 20:29.39 | 5:00.01 | 92214 | 114714 6 | 25:29.40 | 2:54.65 | 114715 | 127829 7 | 28:24.30 | 4:26.00 | 127830 | 147779 8 | 32:50.30 | 1:46.02 | 147780 | 155731 9 | 34:36.32 | 3:29.01 | 155732 | 171407 10 | 38:05.33 | 2:50.03 | 171408 | 184160 11 | 40:55.36 | 4:13.21 | 184161 | 203156 12 | 45:08.57 | 5:08.38 | 203157 | 226294 13 | 50:17.20 | 4:22.72 | 226295 | 246016 14 | 54:40.17 | 8:17.34 | 246017 | 283325 15 | 62:57.51 | 5:07.13 | 283326 | 306363
Track 1
Filename D:\+DVD Projects\_SAMPLE\Yevhenia Miroshnichenko Singing\CD2\01. Yevhenia Miroshnichenko - Alyabyev - Nightingale.wav
Pre-gap length 0:00:02.00
Peak level 94.4 % Track quality 100.0 % Test CRC B8D31B22 Copy CRC B8D31B22 Copy OK
Track 2
Filename D:\+DVD Projects\_SAMPLE\Yevhenia Miroshnichenko Singing\CD2\02. Yevhenia Miroshnichenko - Saint-Saens - Nightingale And Rose.wav
Pre-gap length 0:00:02.00
Peak level 89.6 % Track quality 99.9 % Test CRC AAFCF980 Copy CRC AAFCF980 Copy OK
Track 3
Filename D:\+DVD Projects\_SAMPLE\Yevhenia Miroshnichenko Singing\CD2\03. Yevhenia Miroshnichenko - Benedict - Venetian Carnival.wav
Pre-gap length 0:00:02.00
Peak level 94.4 % Track quality 100.0 % Test CRC 1FADD086 Copy CRC 1FADD086 Copy OK
Track 4
Filename D:\+DVD Projects\_SAMPLE\Yevhenia Miroshnichenko Singing\CD2\04. Yevhenia Miroshnichenko - Strauss - Tails From The Vienna Woods.wav
Pre-gap length 0:00:02.00
Peak level 94.7 % Track quality 100.0 % Test CRC 5F64C92C Copy CRC 5F64C92C Copy OK
Track 5
Filename D:\+DVD Projects\_SAMPLE\Yevhenia Miroshnichenko Singing\CD2\05. Yevhenia Miroshnichenko - Safferi - Echo.wav
Pre-gap length 0:00:02.00
Peak level 94.4 % Track quality 100.0 % Test CRC AD4A6C35 Copy CRC AD4A6C35 Copy OK
Track 6
Filename D:\+DVD Projects\_SAMPLE\Yevhenia Miroshnichenko Singing\CD2\06. Yevhenia Miroshnichenko - Rimskiy-Korsakov - Captivated By The Rose (The Nightingale).wav
Pre-gap length 0:00:02.00
Peak level 94.4 % Track quality 100.0 % Test CRC B242617B Copy CRC B242617B Copy OK
Track 7
Filename D:\+DVD Projects\_SAMPLE\Yevhenia Miroshnichenko Singing\CD2\07. Yevhenia Miroshnichenko - Rakhmaninov - Oh, Beauty, Do Not Sing to Me.wav
Pre-gap length 0:00:02.00
Peak level 94.4 % Track quality 100.0 % Test CRC 50BC12AA Copy CRC 50BC12AA Copy OK
Track 8
Filename D:\+DVD Projects\_SAMPLE\Yevhenia Miroshnichenko Singing\CD2\08. Yevhenia Miroshnichenko - Rakhmaninov - Here Is So Nice.wav
Pre-gap length 0:00:02.00
Peak level 94.4 % Track quality 100.0 % Test CRC 875695B0 Copy CRC 875695B0 Copy OK
Track 9
Filename D:\+DVD Projects\_SAMPLE\Yevhenia Miroshnichenko Singing\CD2\09. Yevhenia Miroshnichenko - Debussy - Shadows.wav
Pre-gap length 0:00:02.00
Peak level 94.4 % Track quality 100.0 % Test CRC 18BBA7B7 Copy CRC 18BBA7B7 Copy OK
Track 10
Filename D:\+DVD Projects\_SAMPLE\Yevhenia Miroshnichenko Singing\CD2\10. Yevhenia Miroshnichenko - Budaly - Bouquet of Nice.wav
Pre-gap length 0:00:02.00
Peak level 94.4 % Track quality 100.0 % Test CRC 54368FD8 Copy CRC 54368FD8 Copy OK
Track 11
Filename D:\+DVD Projects\_SAMPLE\Yevhenia Miroshnichenko Singing\CD2\11. Yevhenia Miroshnichenko - Tchaikovsky - Sentimental Waltz.wav
Pre-gap length 0:00:04.00
Peak level 94.3 % Track quality 100.0 % Test CRC 3200154D Copy CRC 3200154D Copy OK
Track 12
Filename D:\+DVD Projects\_SAMPLE\Yevhenia Miroshnichenko Singing\CD2\12. Yevhenia Miroshnichenko - Old French Romance - There Are So Many Funny Things.wav
Pre-gap length 0:00:02.00
Peak level 94.4 % Track quality 100.0 % Test CRC 61A641B6 Copy CRC 61A641B6 Copy OK
Track 13
Filename D:\+DVD Projects\_SAMPLE\Yevhenia Miroshnichenko Singing\CD2\13. Yevhenia Miroshnichenko - Strauss - Blue Danube.wav
Pre-gap length 0:00:02.00
Peak level 94.4 % Track quality 100.0 % Test CRC 2F743261 Copy CRC 2F743261 Copy OK
Track 14
Filename D:\+DVD Projects\_SAMPLE\Yevhenia Miroshnichenko Singing\CD2\14. Yevhenia Miroshnichenko - Gliere - Concerto for Voice and Orchestra, 1. Adnante.wav
Pre-gap length 0:00:02.00
Peak level 94.0 % Track quality 100.0 % Test CRC 1AC0EB2E Copy CRC 1AC0EB2E Copy OK
Track 15
Filename D:\+DVD Projects\_SAMPLE\Yevhenia Miroshnichenko Singing\CD2\15. Yevhenia Miroshnichenko - Gliere - Concerto for Voice and Orchestra, 2. Allegro.wav
Pre-gap length 0:00:02.00
Peak level 97.1 % Track quality 99.9 % Test CRC 83B3C9E5 Copy CRC 83B3C9E5 Copy OK
No errors occurred
End of status report

Содержание индексной карты (.CUE)CD1

REM GENRE VocalREM DATE 2011REM DISCID 9012180BREM COMMENT "ExactAudioCopy v0.99pb5"PERFORMER "Yevhenia Miroshnichenko"TITLE "Singing - CD1"FILE "01. Yevhenia Miroshnichenko - Verdi - Scene and Aria (Violetta) - Traviata.wav" WAVE TRACK 01 AUDIO TITLE "Verdi - Scene and Aria (Violetta) - Traviata" PERFORMER "Yevhenia Miroshnichenko" FLAGS DCP INDEX 01 00:00:00 TRACK 02 AUDIO TITLE "Verdi - Aria (Gilda) - Rigoletto" PERFORMER "Yevhenia Miroshnichenko" FLAGS DCP INDEX 00 06:53:24FILE "02. Yevhenia Miroshnichenko - Verdi - Aria (Gilda) - Rigoletto.wav" WAVE INDEX 01 00:00:00 TRACK 03 AUDIO TITLE "Rossini - Cavatina (Rosina) - The Barber of Seville" PERFORMER "Yevhenia Miroshnichenko" FLAGS DCP INDEX 00 05:13:09FILE "03. Yevhenia Miroshnichenko - Rossini - Cavatina (Rosina) - The Barber of Seville.wav" WAVE INDEX 01 00:00:00 TRACK 04 AUDIO TITLE "Donizetti - Recitative and Cavatina (Lucia) - Lucia di Lammermoor" PERFORMER "Yevhenia Miroshnichenko" FLAGS DCP INDEX 00 06:14:03FILE "04. Yevhenia Miroshnichenko - Donizetti - Recitative and Cavatina (Lucia) - Lucia di Lammermoor.wav" WAVE INDEX 01 00:00:00 TRACK 05 AUDIO TITLE "Donizetti - Scene and Aria (Lucia) - Lucia di Lammermoor" PERFORMER "Yevhenia Miroshnichenko" FLAGS DCP INDEX 00 08:04:01FILE "05. Yevhenia Miroshnichenko - Donizetti - Scene and Aria (Lucia) - Lucia di Lammermoor.wav" WAVE INDEX 01 00:00:00 INDEX 02 00:08:73 TRACK 06 AUDIO TITLE "Verdi - Recitative and Cavatina (Elvira) - Ernani" PERFORMER "Yevhenia Miroshnichenko" FLAGS DCP INDEX 00 15:31:48FILE "06. Yevhenia Miroshnichenko - Verdi - Recitative and Cavatina (Elvira) - Ernani.wav" WAVE INDEX 01 00:00:00 TRACK 07 AUDIO TITLE "Delibes - Scene and Legend (Lakme) - Lakme" PERFORMER "Yevhenia Miroshnichenko" FLAGS DCP INDEX 00 09:18:13FILE "07. Yevhenia Miroshnichenko - Delibes - Scene and Legend (Lakme) - Lakme.wav" WAVE INDEX 01 00:00:00 TRACK 08 AUDIO TITLE "Mayboroda - Aria (Yolan) - Mylana" PERFORMER "Yevhenia Miroshnichenko" FLAGS DCP INDEX 00 07:24:12FILE "08. Yevhenia Miroshnichenko - Mayboroda - Aria (Yolan) - Mylana.wav" WAVE INDEX 01 00:00:00 TRACK 09 AUDIO TITLE "Rimskiy-Korsakov - Aria (Marfa) - The Tsar's Bride" PERFORMER "Yevhenia Miroshnichenko" FLAGS DCP INDEX 00 03:23:50FILE "09. Yevhenia Miroshnichenko - Rimskiy-Korsakov - Aria (Marfa) - The Tsar's Bride.wav" WAVE INDEX 01 00:00:00 TRACK 10 AUDIO TITLE "Rimskiy-Korsakov - Scene and Aria (Marfa) - The Tsar's Bride" PERFORMER "Yevhenia Miroshnichenko" FLAGS DCP INDEX 00 06:06:00FILE "10. Yevhenia Miroshnichenko - Rimskiy-Korsakov - Scene and Aria (Marfa) - The Tsar's Bride.wav" WAVE INDEX 01 00:00:00 TRACK 11 AUDIO TITLE "Mozart - Aria (Queen of the Night) - The Magic Flute" PERFORMER "Yevhenia Miroshnichenko" FLAGS DCP INDEX 00 05:27:00FILE "11. Yevhenia Miroshnichenko - Mozart - Aria (Queen of the Night) - The Magic Flute.wav" WAVE INDEX 01 00:00:00

CD2

REM GENRE VocalREM DATE 2011REM DISCID D80FF40FREM COMMENT "ExactAudioCopy v0.99pb5"PERFORMER "Yevhenia Miroshnichenko"TITLE "Singing - CD2"FILE "01. Yevhenia Miroshnichenko - Alyabyev - Nightingale.wav" WAVE TRACK 01 AUDIO TITLE "Alyabyev - Nightingale" PERFORMER "Yevhenia Miroshnichenko" FLAGS DCP INDEX 01 00:00:00 TRACK 02 AUDIO TITLE "Saint-Saens - Nightingale And Rose" PERFORMER "Yevhenia Miroshnichenko" FLAGS DCP INDEX 00 03:51:25FILE "02. Yevhenia Miroshnichenko - Saint-Saens - Nightingale And Rose.wav" WAVE INDEX 01 00:00:00 TRACK 03 AUDIO TITLE "Benedict - Venetian Carnival" PERFORMER "Yevhenia Miroshnichenko" FLAGS DCP INDEX 00 02:59:00FILE "03. Yevhenia Miroshnichenko - Benedict - Venetian Carnival.wav" WAVE INDEX 01 00:00:00 TRACK 04 AUDIO TITLE "Strauss - Tails From The Vienna Woods" PERFORMER "Yevhenia Miroshnichenko" FLAGS DCP INDEX 00 08:00:07FILE "04. Yevhenia Miroshnichenko - Strauss - Tails From The Vienna Woods.wav" WAVE INDEX 01 00:00:00 TRACK 05 AUDIO TITLE "Safferi - Echo" PERFORMER "Yevhenia Miroshnichenko" FLAGS DCP INDEX 00 05:31:07FILE "05. Yevhenia Miroshnichenko - Safferi - Echo.wav" WAVE INDEX 01 00:00:00 TRACK 06 AUDIO TITLE "Rimskiy-Korsakov - Captivated By The Rose (The Nightingale)" PERFORMER "Yevhenia Miroshnichenko" FLAGS DCP INDEX 00 04:58:01FILE "06. Yevhenia Miroshnichenko - Rimskiy-Korsakov - Captivated By The Rose (The Nightingale).wav" WAVE INDEX 01 00:00:00 TRACK 07 AUDIO TITLE "Rakhmaninov - Oh, Beauty, Do Not Sing to Me" PERFORMER "Yevhenia Miroshnichenko" FLAGS DCP INDEX 00 02:52:65FILE "07. Yevhenia Miroshnichenko - Rakhmaninov - Oh, Beauty, Do Not Sing to Me.wav" WAVE INDEX 01 00:00:00 TRACK 08 AUDIO TITLE "Rakhmaninov - Here Is So Nice" PERFORMER "Yevhenia Miroshnichenko" FLAGS DCP INDEX 00 04:24:00FILE "08. Yevhenia Miroshnichenko - Rakhmaninov - Here Is So Nice.wav" WAVE INDEX 01 00:00:00 TRACK 09 AUDIO TITLE "Debussy - Shadows" PERFORMER "Yevhenia Miroshnichenko" FLAGS DCP INDEX 00 01:44:02FILE "09. Yevhenia Miroshnichenko - Debussy - Shadows.wav" WAVE INDEX 01 00:00:00 TRACK 10 AUDIO TITLE "Budaly - Bouquet of Nice" PERFORMER "Yevhenia Miroshnichenko" FLAGS DCP INDEX 00 03:27:01FILE "10. Yevhenia Miroshnichenko - Budaly - Bouquet of Nice.wav" WAVE INDEX 01 00:00:00 TRACK 11 AUDIO TITLE "Tchaikovsky - Sentimental Waltz" PERFORMER "Yevhenia Miroshnichenko" FLAGS DCP INDEX 00 02:46:03FILE "11. Yevhenia Miroshnichenko - Tchaikovsky - Sentimental Waltz.wav" WAVE INDEX 01 00:00:00 TRACK 12 AUDIO TITLE "Old French Romance - There Are So Many Funny Things" PERFORMER "Yevhenia Miroshnichenko" FLAGS DCP INDEX 00 04:11:21FILE "12. Yevhenia Miroshnichenko - Old French Romance - There Are So Many Funny Things.wav" WAVE INDEX 01 00:00:00 TRACK 13 AUDIO TITLE "Strauss - Blue Danube" PERFORMER "Yevhenia Miroshnichenko" FLAGS DCP INDEX 00 05:06:38FILE "13. Yevhenia Miroshnichenko - Strauss - Blue Danube.wav" WAVE INDEX 01 00:00:00 TRACK 14 AUDIO TITLE "Gliere - Concerto for Voice and Orchestra, 1. Adnante" PERFORMER "Yevhenia Miroshnichenko" FLAGS DCP INDEX 00 04:20:72FILE "14. Yevhenia Miroshnichenko - Gliere - Concerto for Voice and Orchestra, 1. Adnante.wav" WAVE INDEX 01 00:00:00 TRACK 15 AUDIO TITLE "Gliere - Concerto for Voice and Orchestra, 2. Allegro" PERFORMER "Yevhenia Miroshnichenko" FLAGS DCP INDEX 00 08:15:34FILE "15. Yevhenia Miroshnichenko - Gliere - Concerto for Voice and Orchestra, 2. Allegro.wav" WAVE INDEX 01 00:00:00



Показать сообщения:    

Текущее время: 20-Янв 16:57

Часовой пояс: UTC + 3


Вы не можете начинать темы
Вы не можете отвечать на сообщения
Вы не можете редактировать свои сообщения
Вы не можете удалять свои сообщения
Вы не можете голосовать в опросах
Вы не можете прикреплять файлы к сообщениям
Вы не можете скачивать файлы