(Classical) Amore e morte dell\'amore: Duets by Durante, Handel, Lotti, Marcello, Monteverdi - Roberta Invernizzi, Sonia Prina, Ensemble Claudiana, Luca Pianca - 2013, FLAC (image+.cue) lossless


 

[Цитировать]

Amore e morte dell'amore: Duets by Durante, Handel, Lotti, Marcello, Monteverdi - Roberta Invernizzi, Sonia Prina, Ensemble Claudiana, Luca Pianca
Жанр: Classical
Страна-производитель диска: France
Год издания диска: 2013
Издатель (лейбл): Naive
Номер по каталогу: OP30549
Дата записи: 2012
Аудиокодек: FLAC
Тип рипа: image+.cue
Битрейт аудио: lossless
Продолжительность: 68:27
Источник: собственный рип
Наличие сканов в содержимом раздачи: да
Треклист:
[1] Claudio Monteverdi: Interrotte speranze
[2] Claudio Monteverdi: Mentre vaga angioletta
[3] Benedetto Marcello: Se morto mi brami
[4] George Frideric Handel: Tanti strali
[5] Claudio Monteverdi: Pur ti miro (L’incoronazione di Poppea)
[6] Antonio Lotti: Giuramento amoroso
[7]-[9] Domenico Scarlatti: Sonata, K90
[10] Claudio Monteverdi: Ohime dov'e il mio ben
[11] Francesco Durante: Son io barbara donna
[12] Claudio Monteverdi: Vorrei baciarti
[13] George Frideric Handel: Sono liete, fortunate
Исполнители:
Roberta Invernizzi soprano
Sonia Prina contralto
Ensemble Claudiana
Luca Pianca
theorbo & conductor

Лог создания рипа

Exact Audio Copy V1.0 beta 3 from 29. August 2011
EAC extraction logfile from 10. June 2015, 23:04
Roberta Invernizzi, Sonia Prina, Ensemble Claudiana, Luca Pianca / Amore e Morte dell'Amore
Used drive : HL-DT-STDVDRAM GU70N Adapter: 0 ID: 0
Read mode : SecureUtilize accurate stream : YesDefeat audio cache : YesMake use of C2 pointers : No
Read offset correction : 48Overread into Lead-In and Lead-Out : NoFill up missing offset samples with silence : YesDelete leading and trailing silent blocks : NoNull samples used in CRC calculations : YesUsed interface : Native Win32 interface for Win NT & 2000
Used output format : User Defined EncoderSelected bitrate : 128 kBit/sQuality : HighAdd ID3 tag : NoCommand line compressor : C:\Program Files (x86)\Exact Audio Copy\Flac\flac.exeAdditional command line options : -V -8 -T "Date=%year%" -T "Genre=%genre%" %source%
TOC of the extracted CD
Track | Start | Length | Start sector | End sector --------------------------------------------------------- 1 | 0:00.00 | 3:11.34 | 0 | 14358 2 | 3:11.34 | 9:07.35 | 14359 | 55418 3 | 12:18.69 | 6:07.49 | 55419 | 82992 4 | 18:26.43 | 8:11.60 | 82993 | 119877 5 | 26:38.28 | 4:36.64 | 119878 | 140641 6 | 31:15.17 | 5:32.48 | 140642 | 165589 7 | 36:47.65 | 3:13.23 | 165590 | 180087 8 | 40:01.13 | 4:33.06 | 180088 | 200568 9 | 44:34.19 | 3:14.54 | 200569 | 215172 10 | 47:48.73 | 5:08.33 | 215173 | 238305 11 | 52:57.31 | 6:51.68 | 238306 | 269198 12 | 59:49.24 | 3:58.30 | 269199 | 287078 13 | 63:47.54 | 4:39.64 | 287079 | 308067
Range status and errors
Selected range
Filename C:\temp\Amore e morte dell'amore - Invernizzi, Prina\Amore e Morte dell'Amore.wav
Peak level 99.2 % Extraction speed 2.3 X Range quality 100.0 % Test CRC E2ACA36E Copy CRC E2ACA36E Copy OK
No errors occurred
AccurateRip summary
Track 1 accurately ripped (confidence 3) [B224F110] (AR v2)Track 2 accurately ripped (confidence 3) [BE30A7CF] (AR v2)Track 3 accurately ripped (confidence 3) [6B495D99] (AR v2)Track 4 accurately ripped (confidence 3) [17AAF76D] (AR v2)Track 5 accurately ripped (confidence 3) [3A1D6F5B] (AR v2)Track 6 accurately ripped (confidence 3) [2F7BBFFA] (AR v2)Track 7 accurately ripped (confidence 3) [FE5CF605] (AR v2)Track 8 accurately ripped (confidence 3) [D6F49D7E] (AR v2)Track 9 accurately ripped (confidence 3) [23760DD4] (AR v2)Track 10 accurately ripped (confidence 3) [82AB9D83] (AR v2)Track 11 accurately ripped (confidence 3) [64C05BAB] (AR v2)Track 12 accurately ripped (confidence 3) [865A6C95] (AR v2)Track 13 accurately ripped (confidence 4) [C80FFFD4] (AR v2)
All tracks accurately ripped
End of status report
==== Log checksum D9CE0AFA78ED7BAAE9D1E8C0BE8BA9CA89CEA831BE0E767670A2078E2E3118D3 ====



Показать сообщения:    

Текущее время: 08-Дек 12:56

Часовой пояс: UTC + 3


Вы не можете начинать темы
Вы не можете отвечать на сообщения
Вы не можете редактировать свои сообщения
Вы не можете удалять свои сообщения
Вы не можете голосовать в опросах
Вы не можете прикреплять файлы к сообщениям
Вы не можете скачивать файлы