(русский романс) Надежда Обухова (Nadezhda Obukhova) - Песни и романсы (Н.Титов;П.Булахов;С.Донауров;А.Варламов;А.Гурилев;А.Абаза;Ф.Кенеман;А.Гуэрча) - 2008, APE (image+.cue) lossless


 

[Цитировать]

Надежда Обухова - Песни и романсы
Жанр: русский романс
Страна-производитель диска: Россия
Год издания диска: 2008
Издатель (лейбл): Мелодия
Номер по каталогу: MEL CD 10 01330
Дата записи: 1940-50-е гг.
Аудиокодек: APE
Тип рипа: image+.cue
Битрейт аудио: lossless
Продолжительность: 01:16:08
Источник: собственный рип
Наличие сканов в содержимом раздачи: да
Треклист:
1.Талисман (Н.Титов-А.С.Пушкин)
2.Не для меня (П.Булахов)
3.Ожидание (С.Донауров)
4.Он уехал (С.Донауров)
5.На заре ты ее не буди (А.Варламов-А.Фет)
6.Красный сарафан (А.Варламов-Н.Цыганов)
7.Не пробуждай воспоминанья (П.Булахов)
8.Свидание (П.Булахов-Н.Греков)
9.Тройка (В.Чуевский)
10.Матушка-голубушка (А.Гурилев)
11.Колокольчик (А.Гурилев)
12.Утро туманное (А.Абаза-И.Тургенев)
13.Сладко пел душа-соловушка (Н.Нолинский-И.Лажечников)
14.Друг мой милый (Ф.Кенеман)
15.Колечко (Н.Бахметов)
16.Сердце-игрушка (А.Гурилев-Э.Губер)
17.Подснежник (А.Гречанинов-П.Соловьев)
18.И может быть (Н.Дервиз-Е.Ростопчина)
19.Нет, не любил он (А.Гуэрча)
Исполнители:
фортепиано: М.Сахаров
скрипка: И.Солодуев
виолончель: Ф.Лузанов
гитара: А.Иванов-Крамской-"Редкий по красоте голос мягкого тембра, большого диапазона, одинаково красивый во всех регистрах, музыкальность, теплота и задушевность исполнения являются главными чертами артистического дарования Надежды Андреевны" - писала про Обухову А.В. Нежданова.

Лог создания рипа

Exact Audio Copy V1.0 beta 6 from 9. April 2015
EAC extraction logfile from 5. June 2015, 13:45
Nadezhda Obukhova / Песни и романсы
Used drive : Optiarc DVD RW AD-7283S Adapter: 1 ID: 0
Read mode : SecureUtilize accurate stream : YesDefeat audio cache : YesMake use of C2 pointers : No
Read offset correction : 48Overread into Lead-In and Lead-Out : NoFill up missing offset samples with silence : YesDelete leading and trailing silent blocks : NoNull samples used in CRC calculations : YesUsed interface : Native Win32 interface for Win NT & 2000
Used output format : Monkey's Audio Lossless EncoderSelected bitrate : Extra High Lossless CompressionQuality : HighAdd ID3 tag : YesCommand line compressor : C:\Program Files (x86)\Monkey's Audio\MAC.exe
TOC of the extracted CD
Track | Start | Length | Start sector | End sector --------------------------------------------------------- 1 | 0:00.00 | 5:27.46 | 0 | 24570 2 | 5:27.46 | 5:15.00 | 24571 | 48195 3 | 10:42.46 | 4:03.53 | 48196 | 66473 4 | 14:46.24 | 4:05.30 | 66474 | 84878 5 | 18:51.54 | 5:35.53 | 84879 | 110056 6 | 24:27.32 | 5:31.24 | 110057 | 134905 7 | 29:58.56 | 4:40.22 | 134906 | 155927 8 | 34:39.03 | 3:33.54 | 155928 | 171956 9 | 38:12.57 | 3:35.66 | 171957 | 188147 10 | 41:48.48 | 3:09.29 | 188148 | 202351 11 | 44:58.02 | 3:23.36 | 202352 | 217612 12 | 48:21.38 | 5:00.61 | 217613 | 240173 13 | 53:22.24 | 4:21.01 | 240174 | 259749 14 | 57:43.25 | 3:24.62 | 259750 | 275111 15 | 61:08.12 | 2:01.03 | 275112 | 284189 16 | 63:09.15 | 2:20.16 | 284190 | 294705 17 | 65:29.31 | 2:06.04 | 294706 | 304159 18 | 67:35.35 | 4:56.11 | 304160 | 326370 19 | 72:31.46 | 3:36.72 | 326371 | 342642
Range status and errors
Selected range
Filename D:\WORK\1\Nadezhda Obukhova - Песни и романсы.wav
Peak level 95.9 % Extraction speed 4.5 X Range quality 100.0 % Copy CRC B61BA5F9 Copy OK
No errors occurred
AccurateRip summary
Track 1 not present in databaseTrack 2 not present in databaseTrack 3 not present in databaseTrack 4 not present in databaseTrack 5 not present in databaseTrack 6 not present in databaseTrack 7 not present in databaseTrack 8 not present in databaseTrack 9 not present in databaseTrack 10 not present in databaseTrack 11 not present in databaseTrack 12 not present in databaseTrack 13 not present in databaseTrack 14 not present in databaseTrack 15 not present in databaseTrack 16 not present in databaseTrack 17 not present in databaseTrack 18 not present in databaseTrack 19 not present in database
None of the tracks are present in the AccurateRip database
End of status report
---- CUETools DB Plugin V2.1.6
[CTDB TOCID: 2yKFz.y9tCSt9oVq6txYtP.bGwE-] foundSubmit result: already submittedTrack | CTDB Status 1 | (1/1) Accurately ripped 2 | (1/1) Accurately ripped 3 | (1/1) Accurately ripped 4 | (1/1) Accurately ripped 5 | (1/1) Accurately ripped 6 | (1/1) Accurately ripped 7 | (1/1) Accurately ripped 8 | (1/1) Accurately ripped 9 | (1/1) Accurately ripped 10 | (1/1) Accurately ripped 11 | (1/1) Accurately ripped 12 | (1/1) Accurately ripped 13 | (1/1) Accurately ripped 14 | (1/1) Accurately ripped 15 | (1/1) Accurately ripped 16 | (1/1) Accurately ripped 17 | (1/1) Accurately ripped 18 | (1/1) Accurately ripped 19 | (1/1) Accurately ripped

Лог проверки качества

AUDIOCHECKER v2.0 beta (build 457) - by Dester - opdester@freemail.hu~~~~~~~~~~~~~~~~~~~~~~~~~~~~~~~~~~-=== DO NOT EDIT THIS FILE! ===-
Path: ...\Надежда Обухова - Песни и романсы (MEL CD)
1 -=- Nadezhda Obukhova - Песни и романсы.ape -=- CDDA (100%)
3526724

Скриншот спектра частот




Показать сообщения:    

Текущее время: 11-Дек 01:27

Часовой пояс: UTC + 3


Вы не можете начинать темы
Вы не можете отвечать на сообщения
Вы не можете редактировать свои сообщения
Вы не можете удалять свои сообщения
Вы не можете голосовать в опросах
Вы не можете прикреплять файлы к сообщениям
Вы не можете скачивать файлы