(Classical, Orchestral) Mahler - Das Lied von der Erde (Brigitte Fassbaender, Francisco Araiza, Berliner Philharmoniker, Carlo Maria Giulini) - 2013, FLAC (image+.cue), lossless


 

[Цитировать]

Mahler - Das Lied von der Erde - Giulini
Жанр: Classical, Orchestral
Страна-производитель диска: EU
Год издания диска: 2013
Издатель (лейбл): Deutsche Grammophon
Номер по каталогу: 479 1117
Дата записи: 02/1984
Аудиокодек: FLAC
Тип рипа: image+.cue
Битрейт аудио: lossless
Продолжительность: 64.19
Источник: собственный рип
Наличие сканов в содержимом раздачи: да
Исполнители: Brigitte Fassbaender, Francisco Araiza
Berliner Philharmoniker
Carlo Maria Giulini

Треклист:

01. Das Trinklied vom Jammer der Erde
02. Der Einsame im Herbst
03. Von der Jugend
04. Von der Schoenheit
05. Der Trunkene im Fruehling
06. Der Abschied
Total 64.19

Лог создания рипа:

Exact Audio Copy V1.0 beta 3 from 29. August 2011
Отчёт EAC об извлечении, выполненном 30. мая 2015, 11:13
Giulini & Berliner Philharmoniker / Mahler - Das Lied von der Erde
Дисковод: Optiarc DVD RW AD-7260S Adapter: 0 ID: 1
Режим чтения : ДостоверностьИспользование точного потока : ДаОтключение кэша аудио : ДаИспользование указателей C2 : Нет
Коррекция смещения при чтении : 48Способность читать области Lead-in и Lead-out : НетЗаполнение пропущенных сэмплов тишиной : ДаУдаление блоков с тишиной в начале и конце : НетПри вычислениях CRC использовались нулевые сэмплы : ДаИнтерфейс : Встроенный Win32-интерфейс для Win NT/2000
Выходной формат : Пользовательский кодировщикВыбранный битрейт : 896 kBit/sКачество : ВысокийДобавление ID3-тега : НетУтилита сжатия : C:\Program Files\FLAC Frontend\tools\flac.exeДополнительные параметры : -V -8 -T "Date=%year%" -T "Genre=%genre%" %source%
TOC извлечённого CD
Трек | Старт | Длительность | Начальный сектор | Конечный сектор --------------------------------------------------------------------- 1 | 0:00.33 | 8:41.30 | 33 | 39137 2 | 8:41.63 | 9:47.50 | 39138 | 83212 3 | 18:29.38 | 3:21.32 | 83213 | 98319 4 | 21:50.70 | 7:38.30 | 98320 | 132699 5 | 29:29.25 | 4:25.55 | 132700 | 152629 6 | 33:55.05 | 30:23.03 | 152630 | 289357
Характеристики диапазона извлечения и сообщения об ошибках
Выбранный диапазон
Имя файла D:\EAC\Мои раздачи\Mahler - Das Lied von der Erde - Giulini\Giulini & Berliner Philharmoniker - Mahler - Das Lied von der Erde.wav
Пиковый уровень 86.3 % Скорость извлечения 4.1 X Качество диапазона 100.0 % CRC теста 55D9A410 CRC копии 55D9A410 Копирование... OK
Ошибок не произошло
AccurateRip: сводка
Трек 1 : извлечено точно (доверие 33) [7B299CAA] (AR v2)Трек 2 : извлечено точно (доверие 33) [7BEF8E04] (AR v2)Трек 3 : извлечено точно (доверие 33) [8DEECD31] (AR v2)Трек 4 : извлечено точно (доверие 33) [4B2E5074] (AR v2)Трек 5 : извлечено точно (доверие 33) [C7C4CE99] (AR v2)Трек 6 : извлечено точно (доверие 32) [1D502065] (AR v2)
Все треки извлечены точно
Конец отчёта
==== Контрольная сумма отчёта 82B4FDBFE6004D1AE0F37673799C1D07E6BB7D6DD8B191584B0CF32C187DB20F ====



Показать сообщения:    

Текущее время: 03-Дек 12:40

Часовой пояс: UTC + 3


Вы не можете начинать темы
Вы не можете отвечать на сообщения
Вы не можете редактировать свои сообщения
Вы не можете удалять свои сообщения
Вы не можете голосовать в опросах
Вы не можете прикреплять файлы к сообщениям
Вы не можете скачивать файлы