(vocal) Надежда Обухова - Русский романс / Nadezhda Obukhova - Russian Romances (Глинка;Даргомыжский;Яковлев;Рубинштейн;Мусоргский;Римский-Корсаков;Гречанинов;Глиэр;Кенеман;Ипполитов-Иванов;Оранский) - 2008, APE (image+.cue)


 

[Цитировать]

Надежда Обухова - Русский романс / Nadezhda Obukhova - Russian Romances
Жанр: vocal
Страна-производитель диска: Россия
Год издания диска: 2008
Издатель (лейбл): AQUARIUS
Номер по каталогу: AQVR 290-2
Дата записи: записи 1930-50х гг.
Аудиокодек: APE
Тип рипа: image+.cue
Битрейт аудио: lossless
Продолжительность: 01:15:18
Источник: собственный рип
Наличие сканов в содержимом раздачи: да
Треклист:
1. Что, красотка молодая (М. Глинка - А. Дельвиг)
2. Сомнение (М. Глинка - Н. Кукольник)
3. Ах, когда б я прежде знала (М. Глинка - А. Дельвиг)
4. Расстались гордо мы (А. Даргомыжский - В. Курочкин)
5. В темну ночку (А. Даргомыжский - М. Даргомыжская)
6. Без ума, без разума (А. Даргомыжский - А. Кольцов)
7. Не судите, люди добрые (А. Даргомыжский - А. Тимофеев)
8. Не скажу никому (А. Даргомыжский - А. Кольцов)
9. Я все еще его люблю (А. Даргомыжский - Ю. Жадовская)
10. Элегия (М. Яковлев - А. Дельвиг)
11. Элегия (Не искушай) (М. Глинка - Е. Баратынский)
12. Желание (А. Рубинштейн - М. Лермонтов)
13. Где ты, звездочка (М. Мусоргский - Н. Греков)
14. О чем в тиши ночей (Н. Римский-Корсаков - А. Майков)
15. Свитезянка (Н. Римский-Корсаков - Л. Мей, из А. Мицкевича)
16. Подснежник (А. Гречанинов - Allegro (П. Соловьева))
17. Протяжная (М. Ипполитов-Иванов - сл. народные)
18. Друг мой милый (Ф. Кенеман - А. Пушкин)
19. Разбитое сердце (А. Рубинштейн - Р. Левенштейн, пер. В. Крылова)
20. Придешь ли с новою весною (Р. Глиэр - М. Лохвицкая)
21. О, если б грусть моя (Р. Глиэр - О. Россвейн)
22. О, не вплетай цветов (Р. Глиэр - Д. Ратгауз)
23. Романсеро (М. Ипполитов-Иванов - В. Боткин)
24. Звезда (В. Оранский - М. Лермонтов)
Исполнители:
Фортепиано: М. Сахаров
Виолончель: Ф. Лузанов (2)
Инструментальное трио: И. Солодуев (скрипка), Ф. Лузанов (виолончель), М. Сахаров (фортепано) (17)

Лог создания рипа

Exact Audio Copy V1.0 beta 6 from 9. April 2015
EAC extraction logfile from 1. June 2015, 11:18
Nadezhda Obukhova / Russian Romances
Used drive : Optiarc DVD RW AD-7283S Adapter: 1 ID: 0
Read mode : SecureUtilize accurate stream : YesDefeat audio cache : YesMake use of C2 pointers : No
Read offset correction : 48Overread into Lead-In and Lead-Out : NoFill up missing offset samples with silence : YesDelete leading and trailing silent blocks : NoNull samples used in CRC calculations : YesUsed interface : Native Win32 interface for Win NT & 2000
Used output format : Internal WAV RoutinesSample format : 44.100 Hz; 16 Bit; Stereo
TOC of the extracted CD
Track | Start | Length | Start sector | End sector --------------------------------------------------------- 1 | 0:00.00 | 4:11.06 | 0 | 18830 2 | 4:11.06 | 5:26.24 | 18831 | 43304 3 | 9:37.30 | 3:36.09 | 43305 | 59513 4 | 13:13.39 | 1:58.09 | 59514 | 68372 5 | 15:11.48 | 3:11.31 | 68373 | 82728 6 | 18:23.04 | 3:03.13 | 82729 | 96466 7 | 21:26.17 | 2:16.41 | 96467 | 106707 8 | 23:42.58 | 1:56.20 | 106708 | 115427 9 | 25:39.03 | 2:52.18 | 115428 | 128345 10 | 28:31.21 | 4:50.08 | 128346 | 150103 11 | 33:21.29 | 3:51.45 | 150104 | 167473 12 | 37:12.74 | 3:47.11 | 167474 | 184509 13 | 41:00.10 | 4:02.32 | 184510 | 202691 14 | 45:02.42 | 2:13.11 | 202692 | 212677 15 | 47:15.53 | 3:09.08 | 212678 | 226860 16 | 50:24.61 | 2:03.09 | 226861 | 236094 17 | 52:27.70 | 5:08.29 | 236095 | 259223 18 | 57:36.24 | 3:26.11 | 259224 | 274684 19 | 61:02.35 | 4:21.08 | 274685 | 294267 20 | 65:23.43 | 1:48.09 | 294268 | 302376 21 | 67:11.52 | 1:35.08 | 302377 | 309509 22 | 68:46.60 | 2:19.13 | 309510 | 319947 23 | 71:05.73 | 1:50.32 | 319948 | 328229 24 | 72:56.30 | 2:21.66 | 328230 | 338870
Range status and errors
Selected range
Filename D:\WORK\1\Nadezhda Obukhova - Russian Romances.wav
Peak level 99.0 % Extraction speed 4.5 X Range quality 100.0 % Copy CRC A818BFF0 Copy OK
No errors occurred
AccurateRip summary
Track 1 accurately ripped (confidence 1) [AAB4ABCE] (AR v2)Track 2 accurately ripped (confidence 1) [8B01DAC3] (AR v2)Track 3 accurately ripped (confidence 1) [7DFEFC9F] (AR v2)Track 4 accurately ripped (confidence 1) [BF6FF08E] (AR v2)Track 5 accurately ripped (confidence 1) [DC707BFE] (AR v2)Track 6 accurately ripped (confidence 1) [C67A5335] (AR v2)Track 7 accurately ripped (confidence 1) [FD930A46] (AR v2)Track 8 accurately ripped (confidence 1) [0B4A6F2B] (AR v2)Track 9 accurately ripped (confidence 1) [51DC3645] (AR v2)Track 10 accurately ripped (confidence 1) [720CD7FD] (AR v2)Track 11 accurately ripped (confidence 1) [0EF645F6] (AR v2)Track 12 accurately ripped (confidence 1) [A90C42D0] (AR v2)Track 13 accurately ripped (confidence 1) [A3DA33D4] (AR v2)Track 14 accurately ripped (confidence 1) [6C1A4822] (AR v2)Track 15 accurately ripped (confidence 1) [86E6359D] (AR v2)Track 16 accurately ripped (confidence 1) [F0ED54DB] (AR v2)Track 17 accurately ripped (confidence 1) [7C5A1657] (AR v2)Track 18 accurately ripped (confidence 1) [EDE32595] (AR v2)Track 19 accurately ripped (confidence 1) [A64DBE15] (AR v2)Track 20 accurately ripped (confidence 1) [C74AC17C] (AR v2)Track 21 accurately ripped (confidence 1) [F50DC312] (AR v2)Track 22 accurately ripped (confidence 1) [6EDFB09C] (AR v2)Track 23 accurately ripped (confidence 1) [65A65469] (AR v2)Track 24 accurately ripped (confidence 1) [C5E55B0F] (AR v2)
All tracks accurately ripped
End of status report
---- CUETools DB Plugin V2.1.6
[CTDB TOCID: vENt83pmed0TQ5uFkSyg4emiKQk-] foundSubmit result: already submittedTrack | CTDB Status 1 | (1/1) Accurately ripped 2 | (1/1) Accurately ripped 3 | (1/1) Accurately ripped 4 | (1/1) Accurately ripped 5 | (1/1) Accurately ripped 6 | (1/1) Accurately ripped 7 | (1/1) Accurately ripped 8 | (1/1) Accurately ripped 9 | (1/1) Accurately ripped 10 | (1/1) Accurately ripped 11 | (1/1) Accurately ripped 12 | (1/1) Accurately ripped 13 | (1/1) Accurately ripped 14 | (1/1) Accurately ripped 15 | (1/1) Accurately ripped 16 | (1/1) Accurately ripped 17 | (1/1) Accurately ripped 18 | (1/1) Accurately ripped 19 | (1/1) Accurately ripped 20 | (1/1) Accurately ripped 21 | (1/1) Accurately ripped 22 | (1/1) Accurately ripped 23 | (1/1) Accurately ripped 24 | (1/1) Accurately ripped

Лог проверки качества

AUDIOCHECKER v2.0 beta (build 457) - by Dester - opdester@freemail.hu~~~~~~~~~~~~~~~~~~~~~~~~~~~~~~~~~~-=== DO NOT EDIT THIS FILE! ===-
Path: ...\Obukhova - Russian Romances
1 -=- Nadezhda Obukhova - Russian Romances.ape -=- CDDA (100%)
97141940

Скриншот спектра частот




Показать сообщения:    

Текущее время: 10-Дек 00:19

Часовой пояс: UTC + 3


Вы не можете начинать темы
Вы не можете отвечать на сообщения
Вы не можете редактировать свои сообщения
Вы не можете удалять свои сообщения
Вы не можете голосовать в опросах
Вы не можете прикреплять файлы к сообщениям
Вы не можете скачивать файлы