(vocal,belcanto) Надежда Обухова - Арии и дуэты из опер/Nadezhda Obukhova - Opera Arias and Duets (Даргомыжский;Чайковский;Римский-Корсаков;Мусоргский;Бородин;Massenet;Saint-Saens;Bizet)- 2006, APE (image+.cue) lossless


 

[Цитировать]

Надежда Обухова - Арии и дуэты из опер / Nadezhda Obukhova - Opera Arias and Duets
Жанр: vocal,belcanto
Страна-производитель диска: Россия
Год издания диска: 2006
Издатель (лейбл): AQUARIUS
Номер по каталогу: AQVR 286-2
Дата записи: записи 1937-1947 гг.
Аудиокодек: APE
Тип рипа: image+.cue
Битрейт аудио: lossless
Продолжительность: 01:16:30
Источник: собственный рип
Наличие сканов в содержимом раздачи: да
Треклист:
1. 1-я песня Лауры (А. Даргомыжский «Каменный гость», 1 д.)
2. Дуэт Лизы и Полины (П. Чайковский «Пиковая дама» 1 д.)
3. Романс Полины (П. Чайковский «Пиковая дама« 1 д.)
4. Речитатив и ария Любавы (Н. Римский-Корсаков «Садко», 3 д.)
5. Дуэт Любавы и Садко (Н. Римский-Корсаков «Садко», 3 д.)
6. Гадание Марфы (М. Мусоргский «Хованщина», 2 д.)
7. Песня Марфы (М. Мусоргский «Хованщина», 3 д.)
8. Сцена и дуэт Любаши и Грязного (Н. Римский-Корсаков «Царская невеста», 1 д.)
9. Ария Весны (Н. Римский-Корсаков «Снегурочка», 4 д.)
10. Дуэт Кончаковны и Владимира (А. Бородин «Князь Игорь», 2 д.)
11. Ария Шарлотты (Ж. Массне «Вертер», 3 д.)
12. Ария Далилы (К. Сен-Санс «Самсон и Далила», 1 д.)
13. Ария Далилы (К. Сен-Санс «Самсон и Далила», 2 д.)
14. Ария Далилы (К. Сен-Санс «Самсон и Далила», 2 д.)
15. Хабанера (Ж. Бизе «Кармен», 1 д.)
16. Сегидилья (Ж. Бизе «Кармен», 1 д.)
Исполнители:
Николай Озеров, тенор (5); Андрей Иванов, баритон (Грязной); Вениамин Шевцов, тенор (Бомелий) (8); Иван Козловский, тенор (10)
Оркестры Большого театра и Всесоюзного радио
Дирижеры: Самуил Самосуд (2, 3), Лев Штейнберг (4, 5), Александр Мелик-Пашаев (8, 10) Кирилл Кондрашин (9), Александр Орлов (12-16)
Фортепиано: Матвей Сахаров (1, 11); виолончель: Федор Лузанов (11)

Лог создания рипа

Exact Audio Copy V1.0 beta 6 from 9. April 2015
EAC extraction logfile from 31. May 2015, 12:29
Nadezhda Obukhova / Opera Arias and Duets
Used drive : Optiarc DVD RW AD-7283S Adapter: 1 ID: 0
Read mode : SecureUtilize accurate stream : YesDefeat audio cache : YesMake use of C2 pointers : No
Read offset correction : 48Overread into Lead-In and Lead-Out : NoFill up missing offset samples with silence : YesDelete leading and trailing silent blocks : NoNull samples used in CRC calculations : YesUsed interface : Native Win32 interface for Win NT & 2000
Used output format : Monkey's Audio Lossless EncoderSelected bitrate : Extra High Lossless CompressionQuality : HighAdd ID3 tag : YesCommand line compressor : C:\Program Files (x86)\Monkey's Audio\MAC.exe
TOC of the extracted CD
Track | Start | Length | Start sector | End sector --------------------------------------------------------- 1 | 0:00.00 | 1:45.74 | 0 | 7948 2 | 1:45.74 | 3:13.24 | 7949 | 22447 3 | 4:59.23 | 3:02.06 | 22448 | 36103 4 | 8:01.29 | 4:30.74 | 36104 | 56427 5 | 12:32.28 | 6:40.05 | 56428 | 86432 6 | 19:12.33 | 5:12.00 | 86433 | 109832 7 | 24:24.33 | 3:47.01 | 109833 | 126858 8 | 28:11.34 | 13:48.01 | 126859 | 188959 9 | 41:59.35 | 4:28.46 | 188960 | 209105 10 | 46:28.06 | 3:41.01 | 209106 | 225681 11 | 50:09.07 | 2:17.00 | 225682 | 235956 12 | 52:26.07 | 5:41.01 | 235957 | 261532 13 | 58:07.08 | 4:57.02 | 261533 | 283809 14 | 63:04.10 | 6:23.01 | 283810 | 312535 15 | 69:27.11 | 4:47.69 | 312536 | 334129 16 | 74:15.05 | 2:15.56 | 334130 | 344310
Range status and errors
Selected range
Filename D:\WORK\1\Nadezhda Obukhova - Opera Arias and Duets.wav
Peak level 100.0 % Extraction speed 4.6 X Range quality 100.0 % Copy CRC 90ECFA73 Copy OK
No errors occurred
AccurateRip summary
Track 1 cannot be verified as accurate (confidence 1) [FF561529], AccurateRip returned [E990B6DC] (AR v2)Track 2 cannot be verified as accurate (confidence 1) [0B4C26D9], AccurateRip returned [7C9E13A4] (AR v2)Track 3 cannot be verified as accurate (confidence 1) [E541EB37], AccurateRip returned [76E7D9F6] (AR v2)Track 4 cannot be verified as accurate (confidence 1) [E154949D], AccurateRip returned [01EA6CAA] (AR v2)Track 5 cannot be verified as accurate (confidence 1) [DEE8B632], AccurateRip returned [BA3CB299] (AR v2)Track 6 cannot be verified as accurate (confidence 1) [47F300B8], AccurateRip returned [90A816D5] (AR v2)Track 7 cannot be verified as accurate (confidence 1) [51690A78], AccurateRip returned [97B1F0E7] (AR v2)Track 8 cannot be verified as accurate (confidence 1) [CA32B4C6], AccurateRip returned [5997F19B] (AR v2)Track 9 cannot be verified as accurate (confidence 1) [3057EF16], AccurateRip returned [6369ED57] (AR v2)Track 10 cannot be verified as accurate (confidence 1) [82B1C3B0], AccurateRip returned [4BF389DB] (AR v2)Track 11 cannot be verified as accurate (confidence 1) [1231E8C3], AccurateRip returned [E2F6EC9C] (AR v2)Track 12 cannot be verified as accurate (confidence 1) [806CABCD], AccurateRip returned [B1219AE5] (AR v2)Track 13 cannot be verified as accurate (confidence 1) [8BCADC30], AccurateRip returned [F06B46BA] (AR v2)Track 14 cannot be verified as accurate (confidence 1) [A66A13F5], AccurateRip returned [8741473B] (AR v2)Track 15 cannot be verified as accurate (confidence 1) [1D5C2205], AccurateRip returned [55AA52AC] (AR v2)Track 16 cannot be verified as accurate (confidence 1) [4FAB49F4], AccurateRip returned [4AAE8C2F] (AR v2)
No tracks could be verified as accurateYou may have a different pressing from the one(s) in the database
End of status report
---- CUETools DB Plugin V2.1.6
[CTDB TOCID: 3mU3hJUZGVwyX1iDUFt8ekocj3k-] disk not present in databaseSubmit result: 3mU3hJUZGVwyX1iDUFt8ekocj3k- has been uploaded

Лог проверки качества

AUDIOCHECKER v2.0 beta (build 457) - by Dester - opdester@freemail.hu~~~~~~~~~~~~~~~~~~~~~~~~~~~~~~~~~~-=== DO NOT EDIT THIS FILE! ===-
Path: ...\Obukhova - Opera Arias and Duets
1 -=- Nadezhda Obukhova - Opera Arias and Duets.ape -=- CDDA (76%)
116216100

Скриншот спектра частот




Показать сообщения:    

Текущее время: 03-Дек 12:33

Часовой пояс: UTC + 3


Вы не можете начинать темы
Вы не можете отвечать на сообщения
Вы не можете редактировать свои сообщения
Вы не можете удалять свои сообщения
Вы не можете голосовать в опросах
Вы не можете прикреплять файлы к сообщениям
Вы не можете скачивать файлы