(Vocal / Sacred) Rosano - Stabat Mater (Andreas Scholl, countertenor, Silvia Tentori Montalto,solo viola - Conductor, Marco Rosano) - 2010, APE (image+.cue) lossless


 

[Цитировать]

Marco Rosano - Stabat Mater
Жанр: Vocal / Sacred
Страна-производитель диска: EU
Год издания диска: 2010
Издатель (лейбл): Light Music (Decca)
Дата записи: 2010
Аудиокодек: APE
Тип рипа: image+.cue
Битрейт аудио: lossless
Продолжительность: 32'03
Источник: скачано с
Наличие сканов в содержимом раздачи: да
Треклист:
1. Stabat Mater
2. O Quam Tristis
3. Quis Est Homo
4. Pro Peccatis
5. Eia Mater
6. Sancta Mater
7. Fac Me Vere
8. Juxta Crucem
9. Virgo Virginum
10. Fac Ut Portem
11. Fac Me Plagis
12. Fac Me Cruce
13. Quando Corpus
Исполнители:
Soloists:
Andreas Scholl, countertenor
Silvia Tentori Montalto,solo viola
Marco Rosano, Conductor

Содержание индексной карты (.CUE)

PERFORMER "Andreas Scholl"FILE "Rosano - Stabat Mater [Andreas Scholl].ape" WAVE TRACK 01 AUDIO TITLE "01 Stabat Mater" INDEX 01 00:00:00 TRACK 02 AUDIO TITLE "02 O quam tristis" INDEX 01 02:03:61 TRACK 03 AUDIO TITLE "03 Quis est homo" INDEX 01 04:59:67 TRACK 04 AUDIO TITLE "04 Pro peccatis" INDEX 01 06:13:27 TRACK 05 AUDIO TITLE "05 Eia Mater" INDEX 01 08:41:40 TRACK 06 AUDIO TITLE "06 Sancta Mater" INDEX 01 10:06:09 TRACK 07 AUDIO TITLE "07 Fac me vere" INDEX 01 13:46:65 TRACK 08 AUDIO TITLE "08 Juxta crucem" INDEX 01 16:56:58 TRACK 09 AUDIO TITLE "09 Virgo virginum" INDEX 01 19:53:05 TRACK 10 AUDIO TITLE "10 Fac ut portem" INDEX 01 22:28:21 TRACK 11 AUDIO TITLE "11 Fac me plagis" INDEX 01 24:43:53 TRACK 12 AUDIO TITLE "12 Fac me cruce" INDEX 01 26:10:46 TRACK 13 AUDIO TITLE "13 Quando corpus" INDEX 01 29:34:04

Лог проверки качества

AUDIOCHECKER v2.0 beta (build 457) - by Dester - opdester@freemail.hu~~~~~~~~~~~~~~~~~~~~~~~~~~~~~~~~~~-=== DO NOT EDIT THIS FILE! ===-
Path: ...\Rosano
01 -=- 01. 01 Stabat Mater.wav -=- CDDA (54%)02 -=- 02. 02 O quam tristis.wav -=- MPEG (95%)03 -=- 03. 03 Quis est homo.wav -=- CDDA (62%)04 -=- 04. 04 Pro peccatis.wav -=- CDDA (92%)05 -=- 05. 05 Eia Mater.wav -=- CDDA (100%)06 -=- 06. 06 Sancta Mater.wav -=- CDDA (42%)07 -=- 07. 07 Fac me vere.wav -=- CDDA (86%)08 -=- 08. 08 Juxta crucem.wav -=- MPEG (98%)09 -=- 09. 09 Virgo virginum.wav -=- MPEG (90%)10 -=- 10. 10 Fac ut portem.wav -=- MPEG (93%)11 -=- 11. 11 Fac me plagis.wav -=- MPEG (85%)12 -=- 12. 12 Fac me cruce.wav -=- CDDA (43%)13 -=- 13. 13 Quando corpus.wav -=- MPEG (89%)
Summary 40,69% CDDA
88176404
Доп. информация:
About the composer
Marco Rosano is an Italian (Turin) contemporary composer living in Belgium.
In several projects, he combines the roles of composer, player, arranger and producer. Throughout his career he was involved in film composition, advertising jingles, children's lullabies and popmusic.
About the Stabat Mater
Date 2004
Performers Countertenor, violin, viola, cello and organ
Length 32 minutes
Particulars This Stabat Mater has been composed specially for the voice of Andreas Scholl.
Written in a baroque style, the work is the result of a five-year collaboration between Andreas Scholl and Marco Rosano.
The two met at a dinner party and bonded over a shared obsession with composition and recording technology.
This modern Stabat Mater stands in the 'Baroque' tradition of basso continuo.
Andreas Scholl gave the work its first complete performance on 22 February 2008 at City Recital Hall, Angel Place, Sydney, Australia, with the Australian Brandenburg Orchestra under Paul Dyer.



Показать сообщения:    

Текущее время: 05-Дек 17:31

Часовой пояс: UTC + 3


Вы не можете начинать темы
Вы не можете отвечать на сообщения
Вы не можете редактировать свои сообщения
Вы не можете удалять свои сообщения
Вы не можете голосовать в опросах
Вы не можете прикреплять файлы к сообщениям
Вы не можете скачивать файлы