(vocal, belcanto) Надежда Обухова - Романсы и песни / Nadezhda Obukhova - Romances and Songs (Brahms;Massenet;Martini;Pergolesi;Giordani;Gounod;Faure;Schubert;Schumann;Wagner;Красноглядова;Godard;Garat;Cremieux...)[2008], FLAC (image+.cue)


 

[Цитировать]

Надежда Обухова (меццо сопрано) - Романсы и песни
Жанр: vocal, belcanto
Страна-производитель диска: Россия
Год издания диска: 2008
Издатель (лейбл): AQUARIUS
Номер по каталогу: AQVR 289-2
Дата записи: записи 1930-50-х гг.
Аудиокодек: FLAC
Тип рипа: image+.cue
Битрейт аудио: lossless
Продолжительность: 01:16:20
Источник: собственный рип
Наличие сканов в содержимом раздачи: да
Треклист:
1. Ода Сафо (И. Брамс - Г. Шмидт)
2. Элегия (Ж. Массне - Л. Галле, пер. А. Горчаковой)
3. Восторг любви (Ж. Мартини - Ф. Баттиато)
4. Ах, зачем я не лужайка (Дж. Перголези, из сб. Ж. Векерлена «Пасторали»)
5. О, милый мой (Т. Джордани)
6. Весной (Ш. Гуно - Ж. Барбье)
7. Я имени ее не назову (Г. Форе - N. N.)
8. Бабочка и цветок (Г. Форе - В. Гюго)
9. У моря (Ф. Шуберт - Г. Гейне, пер. Ф. Берга)
10. Прости (Ф. Шуберт - Ф. Шобер, пер. А. Плещеева)
11. Лотос (Р. Шуман - Г. Гейне, пер. А. Ефременкова)
12. В теплице (Р. Вагнер - М. Везендок, пер. В. Коломийцева)
13. Грезы (Р. Вагнер - М. Везендок, пер. В. Коломийцева)
14. Раймонда Дьен (В. Красноглядова - П. Люкэ)
15. Колыбельная (Б. Годар «Жоселен»)
16. В годы моей весны (П. Гара)
17. Твои уста (вальс) (М. Ивен)
18. Когда умирает любовь (вальс) (О. Кремье - С. Вьевегер)
19. Сердце Кордовы (испанский вальс) (М. Левин - К. Подревский)
20. Тигренок (серенада) (муз. и сл. К. Шиловского)
Исполнители:
Фортепиано: М. Сахаров; виолончель: Ф. Лузанов (2)
Инструментальное трио: И. Солодуев (скрипка), Б. Реентович (виолончель), М. Сахаров (фортепано) (15);
И. Солодуев (скрипка), Ф. Лузанов (виолончель), М. Сахаров (фортепано) (18, 19)
Неаполитанский ансамбль п/у Н.Мисаилова (20)

Лог создания рипа

Exact Audio Copy V1.0 beta 3 from 29. August 2011
Отчёт EAC об извлечении, выполненном 19. мая 2015, 18:40
Надежда Обухова / Романсы и песни
Дисковод: Optiarc DVD RW AD-7283S Adapter: 0 ID: 2
Режим чтения : ДостоверностьИспользование точного потока : ДаОтключение кэша аудио : ДаИспользование указателей C2 : Нет
Коррекция смещения при чтении : 48Способность читать области Lead-in и Lead-out : НетЗаполнение пропущенных сэмплов тишиной : ДаУдаление блоков с тишиной в начале и конце : НетПри вычислениях CRC использовались нулевые сэмплы : ДаИнтерфейс : Встроенный Win32-интерфейс для Win NT/2000
Выходной формат : Внутренние WAV-операцииФормат сэмплов : 44.100 Гц; 16 бит; стерео
TOC извлечённого CD
Трек | Старт | Длительность | Начальный сектор | Конечный сектор --------------------------------------------------------------------- 1 | 0:00.00 | 2:56.05 | 0 | 13204 2 | 2:56.05 | 3:57.09 | 13205 | 30988 3 | 6:53.14 | 4:18.08 | 30989 | 50346 4 | 11:11.22 | 3:26.08 | 50347 | 65804 5 | 14:37.30 | 4:08.31 | 65805 | 84435 6 | 18:45.61 | 2:04.08 | 84436 | 93743 7 | 20:49.69 | 3:30.13 | 93744 | 109506 8 | 24:20.07 | 2:50.11 | 109507 | 122267 9 | 27:10.18 | 4:21.10 | 122268 | 141852 10 | 31:31.28 | 4:49.71 | 141853 | 163598 11 | 36:21.24 | 2:12.10 | 163599 | 173508 12 | 38:33.34 | 4:39.20 | 173509 | 194453 13 | 43:12.54 | 5:04.08 | 194454 | 217261 14 | 48:16.62 | 3:26.09 | 217262 | 232720 15 | 51:42.71 | 7:40.20 | 232721 | 267240 16 | 59:23.16 | 3:27.09 | 267241 | 282774 17 | 62:50.25 | 3:26.09 | 282775 | 298233 18 | 66:16.34 | 3:42.37 | 298234 | 314920 19 | 69:58.71 | 2:59.11 | 314921 | 328356 20 | 72:58.07 | 3:22.28 | 328357 | 343534
Характеристики диапазона извлечения и сообщения об ошибках
Выбранный диапазон
Имя файла D:\WORK\1\Надежда Обухова - Романсы и песни.wav
Пиковый уровень 99.4 % Скорость извлечения 4.7 X Качество диапазона 100.0 % CRC копии 9A06D85A Копирование... OK
Ошибок не произошло
AccurateRip: сводка
Трек 1 : извлечено точно (доверие 1) [6B59A08A] (AR v1)Трек 2 : извлечено точно (доверие 1) [B56A58E4] (AR v1)Трек 3 : извлечено точно (доверие 1) [C2293A9C] (AR v1)Трек 4 : извлечено точно (доверие 1) [D1CF2212] (AR v1)Трек 5 : извлечено точно (доверие 1) [CBC49FF6] (AR v1)Трек 6 : извлечено точно (доверие 1) [0F154898] (AR v1)Трек 7 : извлечено точно (доверие 1) [691452B3] (AR v1)Трек 8 : извлечено точно (доверие 1) [0269F07F] (AR v1)Трек 9 : извлечено точно (доверие 1) [9F847134] (AR v1)Трек 10 : извлечено точно (доверие 1) [2995D6BA] (AR v1)Трек 11 : извлечено точно (доверие 1) [7EE6A0AB] (AR v1)Трек 12 : извлечено точно (доверие 1) [9A4A7AFA] (AR v1)Трек 13 : извлечено точно (доверие 1) [E24132D1] (AR v1)Трек 14 : извлечено точно (доверие 1) [768E5045] (AR v1)Трек 15 : извлечено точно (доверие 1) [5C7BC924] (AR v1)Трек 16 : извлечено точно (доверие 1) [4D1BB66A] (AR v1)Трек 17 : извлечено точно (доверие 1) [D29E71BB] (AR v1)Трек 18 : извлечено точно (доверие 1) [D859AD84] (AR v1)Трек 19 : извлечено точно (доверие 1) [CB1C7D11] (AR v1)Трек 20 : извлечено точно (доверие 1) [1DF7EA05] (AR v1)
Все треки извлечены точно
Конец отчёта

Содержание индексной карты (.CUE)

REM GENRE OtherREM DATE 2008REM DISCID 2D11E414REM COMMENT "ExactAudioCopy v1.0b3"PERFORMER "Надежда Обухова"TITLE "Романсы и песни"FILE "Надежда Обухова - Романсы и песни.flac" WAVE TRACK 01 AUDIO TITLE "Ода Сафо (И.Брамс-Г.Шмидт)" PERFORMER "Надежда Обухова" INDEX 01 00:00:00 TRACK 02 AUDIO TITLE "Элегия (Ж. Массне - Л. Галле, пер. А. Горчаковой)" PERFORMER "Надежда Обухова" INDEX 00 02:52:05 INDEX 01 02:56:05 TRACK 03 AUDIO TITLE "Восторг любви (Ж. Мартини - Ф. Баттиато)" PERFORMER "Надежда Обухова" INDEX 00 06:49:14 INDEX 01 06:53:14 TRACK 04 AUDIO TITLE "Ах, зачем я не лужайка (Дж.Перголези, из сб. Ж.Векерлена «Пасторали»)" PERFORMER "Надежда Обухова" INDEX 00 11:07:22 INDEX 01 11:11:22 TRACK 05 AUDIO TITLE "О, милый мой (Т. Джордани)" PERFORMER "Надежда Обухова" INDEX 00 14:33:30 INDEX 01 14:37:30 TRACK 06 AUDIO TITLE "Весной (Ш. Гуно - Ж. Барбье)" PERFORMER "Надежда Обухова" INDEX 00 18:41:61 INDEX 01 18:45:61 TRACK 07 AUDIO TITLE "Я имени ее не назову (Г. Форе - N.N.)" PERFORMER "Надежда Обухова" INDEX 00 20:45:69 INDEX 01 20:49:69 TRACK 08 AUDIO TITLE "Бабочка и цветок (Г. Форе - В. Гюго)" PERFORMER "Надежда Обухова" INDEX 00 24:16:07 INDEX 01 24:20:07 TRACK 09 AUDIO TITLE "У моря (Ф. Шуберт - Г. Гейне, пер. Ф. Берга)" PERFORMER "Надежда Обухова" INDEX 00 27:06:18 INDEX 01 27:10:18 TRACK 10 AUDIO TITLE "Прости (Ф. Шуберт - Ф. Шобер, пер. А. Плещеева)" PERFORMER "Надежда Обухова" INDEX 00 31:27:28 INDEX 01 31:31:28 TRACK 11 AUDIO TITLE "Лотос (Р. Шуман - Г. Гейне, пер. А. Ефременкова)" PERFORMER "Надежда Обухова" INDEX 00 36:17:24 INDEX 01 36:21:24 TRACK 12 AUDIO TITLE "В теплице (Р. Вагнер - М.Везендок, пер. В.Коломийцева)" PERFORMER "Надежда Обухова" INDEX 00 38:29:34 INDEX 01 38:33:34 TRACK 13 AUDIO TITLE "Грезы (Р. Вагнер - М. Везендок, пер. В. Коломийцева)" PERFORMER "Надежда Обухова" INDEX 00 43:08:54 INDEX 01 43:12:54 TRACK 14 AUDIO TITLE "Раймонда Дьен (В. Красноглядова - П. Люкэ)" PERFORMER "Надежда Обухова" INDEX 00 48:12:62 INDEX 01 48:16:62 TRACK 15 AUDIO TITLE "Колыбельная (Б.Годар - «Жоселен»)" PERFORMER "Надежда Обухова" INDEX 00 51:38:71 INDEX 01 51:42:71 TRACK 16 AUDIO TITLE "В годы моей весны (П. Гара)" PERFORMER "Надежда Обухова" INDEX 00 59:19:16 INDEX 01 59:23:16 TRACK 17 AUDIO TITLE "Твои уста (вальс) (М. Ивен)" PERFORMER "Надежда Обухова" INDEX 00 62:46:25 INDEX 01 62:50:25 TRACK 18 AUDIO TITLE "Когда умирает любовь (вальс) (О. Кремье - С. Вьевегер)" PERFORMER "Надежда Обухова" INDEX 00 66:12:34 INDEX 01 66:16:34 TRACK 19 AUDIO TITLE "Сердце Кордовы (испанский вальс) (М. Левин - К. Подревский)" PERFORMER "Надежда Обухова" INDEX 00 69:54:71 INDEX 01 69:58:71 TRACK 20 AUDIO TITLE "Тигренок (серенада) (муз. и сл. К. Шиловского)" PERFORMER "Надежда Обухова" INDEX 00 72:54:07 INDEX 01 72:58:07

Лог проверки качества

AUDIOCHECKER v2.0 beta (build 457) - by Dester - opdester@freemail.hu~~~~~~~~~~~~~~~~~~~~~~~~~~~~~~~~~~-=== DO NOT EDIT THIS FILE! ===-
Path: ...\Obukhova - Romances and Songs
1 -=- Надежда Обухова - Романсы и песни.flac -=- CDDA (86%)
132308532

Скриншот спектра частот




Показать сообщения:    

Текущее время: 08-Дек 03:15

Часовой пояс: UTC + 3


Вы не можете начинать темы
Вы не можете отвечать на сообщения
Вы не можете редактировать свои сообщения
Вы не можете удалять свои сообщения
Вы не можете голосовать в опросах
Вы не можете прикреплять файлы к сообщениям
Вы не можете скачивать файлы