(Vocal / Вокал) Фёдор Шаляпин / Feodor Chaliapin - Легенды русской эстрады - 2000 (2CD), APE (tracks+.cue) lossless


 

[Цитировать]

Фёдор Шаляпин/Feodor Chaliapin - Легенды русской эстрады
Жанр: Vocal / Вокал
Страна-производитель диска: Россия
Год издания диска: 2000
Издатель (лейбл): RCD (Russian Compact Disc)
Номер по каталогу: 40703
UPC: 4600383407036
Аудиокодек: APE
Тип рипа: tracks+.cue
Битрейт аудио: lossless
Продолжительность: 71:15+65:55
Источник: собственный рип
Наличие сканов в содержимом раздачи: да
Треклист:
Disc: 1
1. Вниз по матушке, по Волге 3:25
2. Легенда о двенадцати разбойниках 3:56
3. Лучинушка 3:26
4. Вдоль по Питерской 1:57
5. Очи черные 3:26
6. Прощай, радость 3:55
7. Из-за острова на стрежень 4:00
8. Эй, ухнем 3:24
9. Дубинушка 3:25
10. Ноченька 3:51
11. Из-под дуба, из-под вяза 1:44
12. М. Слонов Прощальное слово 3:03
13. Ф. Кенеман Как король шел на войну 3:48
14. Г. Лишин Она хохотала 3:36
15. М. Глинка Сомнение 4:30
16. А. Даргомыжский Старый капрал 4:27
17. А. Рубинштейн Клубится волною… 4:35
18. Н. Римский-Корсаков Пророк 4:14
19. П. Чайковский Благословляю вас, леса 3:00
20. М. Мусоргский Песня Мефистофеля в погребке Ауэрбаха 2:46
Disc: 2
1. Зашумела, разгулялась (В. Соколов — И. Никитин) 4:16
2. Ах, ты, солнце красное (М. Слонов — А. Мочалов) 2:33
3. Ноченька 3:51
4. Былина о царе Иване Васильевиче 2:58
5. Было у тещеньки семеро зятьев 3:16
6. Ой, у лузi 3:50
7. Элегия (В. Корганов — К. Фофанов) 2:10
8. Ночной смотр (М. Глинка — В. Жуковский) 3:50
9. Узник (А. Рубинштейн — А. Пушкин) 2:50
10. Соловей (П. Чайковский — А. Пушкин) 3:23
11. На холмах Грузии... (Н. Римский-Корсаков — А. Пушкин) 3:05
12. Вчера мы встретились (С. Рахманинов — Я Полонский) 2:49
13. Былина об Илье Муромце 2:38
14 Солнце всходит и заходит 3:23
15. Эх, ты, Ванька 3:02
16. Не велят Маше 3:36
17. Не осенний мелкий дождичек 4:03
18. Ты взойди, солнце красное 3:26
18. Трепак (М. Мусоргский — А. Гленищев-Кутузов) 4:15
20. Разочарование (П. Чайковский — П. Коллен) 2:16
Исполнители:
Федор Шаляпин, бас

Feodor Chaliapin - Легенды русской эстрады - CD1.log

Exact Audio Copy V1.0 beta 6 from 9. April 2015
EAC extraction logfile from 17. May 2015, 13:47
Feodor Chaliapin / Легенды русской эстрады - CD1
Used drive : Optiarc DVD RW AD-7200S Adapter: 1 ID: 0
Read mode : SecureUtilize accurate stream : YesDefeat audio cache : YesMake use of C2 pointers : No
Read offset correction : 48Overread into Lead-In and Lead-Out : NoFill up missing offset samples with silence : YesDelete leading and trailing silent blocks : NoNull samples used in CRC calculations : YesUsed interface : Native Win32 interface for Win NT & 2000Gap handling : Appended to previous track
Used output format : User Defined EncoderSelected bitrate : 1024 kBit/sQuality : HighAdd ID3 tag : NoCommand line compressor : C:\program files\Monkey's Audio\wapet.exeAdditional command line options : %dest% -t "Genre=%genre%" -t "Artist=%artist%" -t "Title=%title%" -t "Album=%albumtitle%" -t "Year=%year%" -t "Track=%tracknr%" -t "Comment=%comment%" mac.exe %source% %dest% -c4000
TOC of the extracted CD
Track | Start | Length | Start sector | End sector --------------------------------------------------------- 1 | 0:00.00 | 3:30.08 | 0 | 15757 2 | 3:30.08 | 4:00.65 | 15758 | 33822 3 | 7:30.73 | 3:33.27 | 33823 | 49824 4 | 11:04.25 | 2:02.60 | 49825 | 59034 5 | 13:07.10 | 3:31.62 | 59035 | 74921 6 | 16:38.72 | 4:00.63 | 74922 | 92984 7 | 20:39.60 | 4:04.25 | 92985 | 111309 8 | 24:44.10 | 3:29.62 | 111310 | 127046 9 | 28:13.72 | 3:27.18 | 127047 | 142589 10 | 31:41.15 | 3:49.36 | 142590 | 159800 11 | 35:30.51 | 1:44.10 | 159801 | 167610 12 | 37:14.61 | 3:29.32 | 167611 | 183317 13 | 40:44.18 | 3:48.16 | 183318 | 200433 14 | 44:32.34 | 3:34.74 | 200434 | 216557 15 | 48:07.33 | 4:27.68 | 216558 | 236650 16 | 52:35.26 | 4:24.72 | 236651 | 256522 17 | 57:00.23 | 4:33.34 | 256523 | 277031 18 | 61:33.57 | 4:12.44 | 277032 | 295975 19 | 65:46.26 | 2:58.72 | 295976 | 309397 20 | 68:45.23 | 2:41.36 | 309398 | 321508
Track 1
Filename D:\Feodor Chaliapin\(2000) Легенды русской эстрады - CD1\Feodor Chaliapin - Легенды русской эстрады - CD1 - 01. Вниз по матушке, по Волге.wav
Pre-gap length 0:00:02.00
Peak level 99.8 % Extraction speed 2.5 X Track quality 100.0 % Test CRC FDF10FB3 Copy CRC FDF10FB3 Accurately ripped (confidence 1) [49C42F78] (AR v1) Copy OK
Track 2
Filename D:\Feodor Chaliapin\(2000) Легенды русской эстрады - CD1\Feodor Chaliapin - Легенды русской эстрады - CD1 - 02. Легенда о двенадцати разбойниках.wav
Peak level 90.3 % Extraction speed 2.8 X Track quality 100.0 % Test CRC 6F38B53D Copy CRC 6F38B53D Accurately ripped (confidence 1) [3271E5A0] (AR v1) Copy OK
Track 3
Filename D:\Feodor Chaliapin\(2000) Легенды русской эстрады - CD1\Feodor Chaliapin - Легенды русской эстрады - CD1 - 03. Лучинушка.wav
Peak level 73.6 % Extraction speed 2.9 X Track quality 100.0 % Test CRC 06F5D9EA Copy CRC 06F5D9EA Accurately ripped (confidence 1) [062A7AF8] (AR v1) Copy OK
Track 4
Filename D:\Feodor Chaliapin\(2000) Легенды русской эстрады - CD1\Feodor Chaliapin - Легенды русской эстрады - CD1 - 04. Вдоль по Питерской.wav
Peak level 88.7 % Extraction speed 2.2 X Track quality 99.9 % Test CRC 588C1AF9 Copy CRC 588C1AF9 Accurately ripped (confidence 1) [E2EC95F1] (AR v1) Copy OK
Track 5
Filename D:\Feodor Chaliapin\(2000) Легенды русской эстрады - CD1\Feodor Chaliapin - Легенды русской эстрады - CD1 - 05. Очи черные.wav
Peak level 87.7 % Extraction speed 2.8 X Track quality 99.9 % Test CRC 2F6CA36D Copy CRC 2F6CA36D Accurately ripped (confidence 1) [CC36C617] (AR v1) Copy OK
Track 6
Filename D:\Feodor Chaliapin\(2000) Легенды русской эстрады - CD1\Feodor Chaliapin - Легенды русской эстрады - CD1 - 06. Прощай, радость.wav
Peak level 91.1 % Extraction speed 3.4 X Track quality 100.0 % Test CRC 5E56E0BE Copy CRC 5E56E0BE Accurately ripped (confidence 1) [D64168D2] (AR v1) Copy OK
Track 7
Filename D:\Feodor Chaliapin\(2000) Легенды русской эстрады - CD1\Feodor Chaliapin - Легенды русской эстрады - CD1 - 07. Из-за острова на стрежень.wav
Peak level 83.0 % Extraction speed 3.2 X Track quality 99.9 % Test CRC 84C0F7E7 Copy CRC 84C0F7E7 Accurately ripped (confidence 1) [8936DFE5] (AR v1) Copy OK
Track 8
Filename D:\Feodor Chaliapin\(2000) Легенды русской эстрады - CD1\Feodor Chaliapin - Легенды русской эстрады - CD1 - 08. Эх, ухнем.wav
Peak level 87.2 % Extraction speed 3.2 X Track quality 99.9 % Test CRC 6442D638 Copy CRC 6442D638 Accurately ripped (confidence 1) [00B094AE] (AR v1) Copy OK
Track 9
Filename D:\Feodor Chaliapin\(2000) Легенды русской эстрады - CD1\Feodor Chaliapin - Легенды русской эстрады - CD1 - 09. Дубинушка.wav
Peak level 82.1 % Extraction speed 3.8 X Track quality 100.0 % Test CRC 721C74E5 Copy CRC 721C74E5 Accurately ripped (confidence 1) [3ECFECF9] (AR v1) Copy OK
Track 10
Filename D:\Feodor Chaliapin\(2000) Легенды русской эстрады - CD1\Feodor Chaliapin - Легенды русской эстрады - CD1 - 10. Ноченька.wav
Peak level 100.0 % Extraction speed 4.1 X Track quality 100.0 % Test CRC AC931044 Copy CRC AC931044 Accurately ripped (confidence 1) [C4016039] (AR v1) Copy OK
Track 11
Filename D:\Feodor Chaliapin\(2000) Легенды русской эстрады - CD1\Feodor Chaliapin - Легенды русской эстрады - CD1 - 11. Из-под дуба, из-под вяза.wav
Peak level 99.9 % Extraction speed 3.5 X Track quality 100.0 % Test CRC 4B1C8C26 Copy CRC 4B1C8C26 Accurately ripped (confidence 1) [CAD44321] (AR v1) Copy OK
Track 12
Filename D:\Feodor Chaliapin\(2000) Легенды русской эстрады - CD1\Feodor Chaliapin - Легенды русской эстрады - CD1 - 12. (М. Слонов) Прощальное слово.wav
Peak level 99.9 % Extraction speed 4.1 X Track quality 100.0 % Test CRC 7FDEA1F0 Copy CRC 7FDEA1F0 Accurately ripped (confidence 1) [D9F4FF46] (AR v1) Copy OK
Track 13
Filename D:\Feodor Chaliapin\(2000) Легенды русской эстрады - CD1\Feodor Chaliapin - Легенды русской эстрады - CD1 - 13. (Ф. Кенеман) Как король шел на войну.wav
Peak level 99.9 % Extraction speed 4.4 X Track quality 100.0 % Test CRC 7E5AB924 Copy CRC 7E5AB924 Accurately ripped (confidence 1) [04CBB061] (AR v1) Copy OK
Track 14
Filename D:\Feodor Chaliapin\(2000) Легенды русской эстрады - CD1\Feodor Chaliapin - Легенды русской эстрады - CD1 - 14. (Г. Лишин) Она хохотала.wav
Peak level 99.8 % Extraction speed 4.4 X Track quality 100.0 % Test CRC 6F835CCB Copy CRC 6F835CCB Accurately ripped (confidence 1) [FEC557DA] (AR v1) Copy OK
Track 15
Filename D:\Feodor Chaliapin\(2000) Легенды русской эстрады - CD1\Feodor Chaliapin - Легенды русской эстрады - CD1 - 15. (М. Глинка) Сомнение.wav
Peak level 100.0 % Extraction speed 4.2 X Track quality 99.9 % Test CRC 274DF977 Copy CRC 274DF977 Accurately ripped (confidence 1) [C0D1C6E1] (AR v1) Copy OK
Track 16
Filename D:\Feodor Chaliapin\(2000) Легенды русской эстрады - CD1\Feodor Chaliapin - Легенды русской эстрады - CD1 - 16. (А. Даргомыжский) Старый капрал.wav
Peak level 91.6 % Extraction speed 4.3 X Track quality 99.9 % Test CRC F89E0D64 Copy CRC F89E0D64 Accurately ripped (confidence 1) [22884008] (AR v1) Copy OK
Track 17
Filename D:\Feodor Chaliapin\(2000) Легенды русской эстрады - CD1\Feodor Chaliapin - Легенды русской эстрады - CD1 - 17. (А. Рубинштейн) Клубится волною....wav
Peak level 48.8 % Extraction speed 5.0 X Track quality 100.0 % Test CRC 4A161E7E Copy CRC 4A161E7E Accurately ripped (confidence 1) [8F23EA74] (AR v1) Copy OK
Track 18
Filename D:\Feodor Chaliapin\(2000) Легенды русской эстрады - CD1\Feodor Chaliapin - Легенды русской эстрады - CD1 - 18. (Н. Римский-Корсаков) Пророк.wav
Peak level 98.4 % Extraction speed 5.1 X Track quality 100.0 % Test CRC B21AD96A Copy CRC B21AD96A Accurately ripped (confidence 1) [1814D542] (AR v1) Copy OK
Track 19
Filename D:\Feodor Chaliapin\(2000) Легенды русской эстрады - CD1\Feodor Chaliapin - Легенды русской эстрады - CD1 - 19. (П. Чайковский) Благославляю вас, леса.wav
Peak level 43.7 % Extraction speed 4.2 X Track quality 99.9 % Test CRC FF1CA540 Copy CRC FF1CA540 Accurately ripped (confidence 1) [DCCB48A8] (AR v1) Copy OK
Track 20
Filename D:\Feodor Chaliapin\(2000) Легенды русской эстрады - CD1\Feodor Chaliapin - Легенды русской эстрады - CD1 - 20. (М. Мусоргский) Песня Мефистофеля в погребке Ауэрбаха.wav
Peak level 81.8 % Extraction speed 5.0 X Track quality 100.0 % Test CRC 5736D9DC Copy CRC 5736D9DC Accurately ripped (confidence 1) [4D835AF6] (AR v1) Copy OK
All tracks accurately ripped
No errors occurred
End of status report
==== Log checksum 0EED6DC387874E859184E0986BD3B86F8C02FAD0471E8BDAF47E206E7E9CEEAD ====

Feodor Chaliapin - Легенды русской эстрады - CD2.log

Exact Audio Copy V1.0 beta 6 from 9. April 2015
EAC extraction logfile from 17. May 2015, 15:08
Feodor Chaliapin / Легенды русской эстрады - CD2
Used drive : Optiarc DVD RW AD-7200S Adapter: 1 ID: 0
Read mode : SecureUtilize accurate stream : YesDefeat audio cache : YesMake use of C2 pointers : No
Read offset correction : 48Overread into Lead-In and Lead-Out : NoFill up missing offset samples with silence : YesDelete leading and trailing silent blocks : NoNull samples used in CRC calculations : YesUsed interface : Native Win32 interface for Win NT & 2000Gap handling : Appended to previous track
Used output format : User Defined EncoderSelected bitrate : 1024 kBit/sQuality : HighAdd ID3 tag : NoCommand line compressor : C:\program files\Monkey's Audio\wapet.exeAdditional command line options : %dest% -t "Genre=%genre%" -t "Artist=%artist%" -t "Title=%title%" -t "Album=%albumtitle%" -t "Year=%year%" -t "Track=%tracknr%" -t "Comment=%comment%" mac.exe %source% %dest% -c4000
TOC of the extracted CD
Track | Start | Length | Start sector | End sector --------------------------------------------------------- 1 | 0:00.00 | 4:16.16 | 0 | 19215 2 | 4:16.16 | 2:32.56 | 19216 | 30671 3 | 6:48.72 | 3:50.57 | 30672 | 47978 4 | 10:39.54 | 2:57.41 | 47979 | 61294 5 | 13:37.20 | 3:16.44 | 61295 | 76038 6 | 16:53.64 | 3:49.16 | 76039 | 93229 7 | 20:43.05 | 2:10.10 | 93230 | 102989 8 | 22:53.15 | 3:50.22 | 102990 | 120261 9 | 26:43.37 | 2:50.52 | 120262 | 133063 10 | 29:34.14 | 3:23.45 | 133064 | 148333 11 | 32:57.59 | 3:06.17 | 148334 | 162300 12 | 36:04.01 | 2:49.69 | 162301 | 175044 13 | 38:53.70 | 2:43.07 | 175045 | 187276 14 | 41:37.02 | 3:27.63 | 187277 | 202864 15 | 45:04.65 | 3:06.28 | 202865 | 216842 16 | 48:11.18 | 3:40.70 | 216843 | 233412 17 | 51:52.13 | 4:09.05 | 233413 | 252092 18 | 56:01.18 | 3:31.35 | 252093 | 267952 19 | 59:32.53 | 4:15.19 | 267953 | 287096 20 | 63:47.72 | 2:16.00 | 287097 | 297296
Track 1
Filename D:\Feodor Chaliapin\(2000) Легенды русской эстрады - CD2\Feodor Chaliapin - Легенды русской эстрады - CD2 - 01. Зашумела, разгулялась.wav
Pre-gap length 0:00:02.00
Peak level 99.9 % Extraction speed 2.6 X Track quality 100.0 % Test CRC 640DCF60 Copy CRC 640DCF60 Accurately ripped (confidence 1) [BD521E6C] (AR v1) Copy OK
Track 2
Filename D:\Feodor Chaliapin\(2000) Легенды русской эстрады - CD2\Feodor Chaliapin - Легенды русской эстрады - CD2 - 02. Ах, ты, солнце красное.wav
Peak level 99.8 % Extraction speed 2.6 X Track quality 100.0 % Test CRC 33D1683E Copy CRC 33D1683E Accurately ripped (confidence 1) [BF4A3F1B] (AR v1) Copy OK
Track 3
Filename D:\Feodor Chaliapin\(2000) Легенды русской эстрады - CD2\Feodor Chaliapin - Легенды русской эстрады - CD2 - 03. Ноченька.wav
Peak level 100.0 % Extraction speed 2.6 X Track quality 99.9 % Test CRC 118DDFEB Copy CRC 118DDFEB Accurately ripped (confidence 1) [39DA158B] (AR v1) Copy OK
Track 4
Filename D:\Feodor Chaliapin\(2000) Легенды русской эстрады - CD2\Feodor Chaliapin - Легенды русской эстрады - CD2 - 04. Былина о царе Иване Васильевиче.wav
Peak level 99.8 % Extraction speed 3.0 X Track quality 100.0 % Test CRC 85E1ED00 Copy CRC 85E1ED00 Accurately ripped (confidence 1) [8B30F820] (AR v1) Copy OK
Track 5
Filename D:\Feodor Chaliapin\(2000) Легенды русской эстрады - CD2\Feodor Chaliapin - Легенды русской эстрады - CD2 - 05. Было у тещеньки семеро зятьев.wav
Peak level 99.8 % Extraction speed 3.3 X Track quality 100.0 % Test CRC 40D3503C Copy CRC 40D3503C Accurately ripped (confidence 1) [6B7A1B5C] (AR v1) Copy OK
Track 6
Filename D:\Feodor Chaliapin\(2000) Легенды русской эстрады - CD2\Feodor Chaliapin - Легенды русской эстрады - CD2 - 06. Ой, у лузi.wav
Peak level 99.9 % Extraction speed 3.5 X Track quality 100.0 % Test CRC 2249E724 Copy CRC 2249E724 Accurately ripped (confidence 1) [A85B1152] (AR v1) Copy OK
Track 7
Filename D:\Feodor Chaliapin\(2000) Легенды русской эстрады - CD2\Feodor Chaliapin - Легенды русской эстрады - CD2 - 07. Элегия.wav
Peak level 99.9 % Extraction speed 2.7 X Track quality 99.9 % Test CRC 83996766 Copy CRC 83996766 Accurately ripped (confidence 1) [DC8D474E] (AR v1) Copy OK
Track 8
Filename D:\Feodor Chaliapin\(2000) Легенды русской эстрады - CD2\Feodor Chaliapin - Легенды русской эстрады - CD2 - 08. Ночной смотр.wav
Peak level 81.9 % Extraction speed 3.8 X Track quality 100.0 % Test CRC CFC1B91E Copy CRC CFC1B91E Accurately ripped (confidence 1) [290B1BCC] (AR v1) Copy OK
Track 9
Filename D:\Feodor Chaliapin\(2000) Легенды русской эстрады - CD2\Feodor Chaliapin - Легенды русской эстрады - CD2 - 09. Узник.wav
Peak level 41.2 % Extraction speed 3.8 X Track quality 100.0 % Test CRC C39B9ECB Copy CRC C39B9ECB Accurately ripped (confidence 1) [9408FFB8] (AR v1) Copy OK
Track 10
Filename D:\Feodor Chaliapin\(2000) Легенды русской эстрады - CD2\Feodor Chaliapin - Легенды русской эстрады - CD2 - 10. Соловей.wav
Peak level 90.1 % Extraction speed 4.0 X Track quality 100.0 % Test CRC 6B719600 Copy CRC 6B719600 Accurately ripped (confidence 1) [CCC20490] (AR v1) Copy OK
Track 11
Filename D:\Feodor Chaliapin\(2000) Легенды русской эстрады - CD2\Feodor Chaliapin - Легенды русской эстрады - CD2 - 11. На холмах Грузии....wav
Peak level 57.1 % Extraction speed 3.5 X Track quality 99.9 % Test CRC 82CC7F91 Copy CRC 82CC7F91 Accurately ripped (confidence 1) [E33B2E04] (AR v1) Copy OK
Track 12
Filename D:\Feodor Chaliapin\(2000) Легенды русской эстрады - CD2\Feodor Chaliapin - Легенды русской эстрады - CD2 - 12. Вчера мы встретились.wav
Peak level 78.2 % Extraction speed 4.1 X Track quality 100.0 % Test CRC D2E9FC5A Copy CRC D2E9FC5A Accurately ripped (confidence 1) [C02AE676] (AR v1) Copy OK
Track 13
Filename D:\Feodor Chaliapin\(2000) Легенды русской эстрады - CD2\Feodor Chaliapin - Легенды русской эстрады - CD2 - 13. Былина об Илье Муромце.wav
Peak level 99.8 % Extraction speed 4.2 X Track quality 100.0 % Test CRC B786E750 Copy CRC B786E750 Accurately ripped (confidence 1) [2F0AFA9B] (AR v1) Copy OK
Track 14
Filename D:\Feodor Chaliapin\(2000) Легенды русской эстрады - CD2\Feodor Chaliapin - Легенды русской эстрады - CD2 - 14. Солнце всходит и заходит.wav
Peak level 85.7 % Extraction speed 3.8 X Track quality 99.9 % Test CRC 62EE809D Copy CRC 62EE809D Accurately ripped (confidence 1) [AAEA87D4] (AR v1) Copy OK
Track 15
Filename D:\Feodor Chaliapin\(2000) Легенды русской эстрады - CD2\Feodor Chaliapin - Легенды русской эстрады - CD2 - 15. Эх, ты, Ванька.wav
Peak level 83.9 % Extraction speed 4.5 X Track quality 100.0 % Test CRC 7A5081B3 Copy CRC 7A5081B3 Accurately ripped (confidence 1) [F15F681A] (AR v1) Copy OK
Track 16
Filename D:\Feodor Chaliapin\(2000) Легенды русской эстрады - CD2\Feodor Chaliapin - Легенды русской эстрады - CD2 - 16. Не велят Маше.wav
Peak level 90.0 % Extraction speed 4.8 X Track quality 100.0 % Test CRC CE17AF31 Copy CRC CE17AF31 Accurately ripped (confidence 1) [608A31EA] (AR v1) Copy OK
Track 17
Filename D:\Feodor Chaliapin\(2000) Легенды русской эстрады - CD2\Feodor Chaliapin - Легенды русской эстрады - CD2 - 17. Не осенний мелкий дождичек.wav
Peak level 73.5 % Extraction speed 5.0 X Track quality 100.0 % Test CRC E3D399BD Copy CRC E3D399BD Accurately ripped (confidence 1) [41A15DF7] (AR v1) Copy OK
Track 18
Filename D:\Feodor Chaliapin\(2000) Легенды русской эстрады - CD2\Feodor Chaliapin - Легенды русской эстрады - CD2 - 18. Ты взойди, солнце красное.wav
Peak level 80.7 % Extraction speed 4.3 X Track quality 99.9 % Test CRC BCFDF3B9 Copy CRC BCFDF3B9 Accurately ripped (confidence 1) [40AE4061] (AR v1) Copy OK
Track 19
Filename D:\Feodor Chaliapin\(2000) Легенды русской эстрады - CD2\Feodor Chaliapin - Легенды русской эстрады - CD2 - 19. Трепак.wav
Peak level 56.4 % Extraction speed 5.2 X Track quality 100.0 % Test CRC 4FBD4A83 Copy CRC 4FBD4A83 Accurately ripped (confidence 1) [B326A05E] (AR v1) Copy OK
Track 20
Filename D:\Feodor Chaliapin\(2000) Легенды русской эстрады - CD2\Feodor Chaliapin - Легенды русской эстрады - CD2 - 20. Разочарование.wav
Peak level 83.2 % Extraction speed 4.7 X Track quality 100.0 % Test CRC 36AAB804 Copy CRC 36AAB804 Accurately ripped (confidence 1) [F914EBD3] (AR v1) Copy OK
All tracks accurately ripped
No errors occurred
End of status report
==== Log checksum F940A9797E10270EE93E737B5D99C432B6865127B41406C50DEF1DC6D793AC1C ====

Легенды русской эстрады - CD1.cue

REM GENRE VocalREM DATE 2000REM DISCID 2610BE14REM COMMENT "ExactAudioCopy v1.0b6"PERFORMER "Feodor Chaliapin"TITLE "Легенды русской эстрады - CD1"FILE "Feodor Chaliapin - Легенды русской эстрады - CD1 - 01. Вниз по матушке, по Волге.wav" WAVE TRACK 01 AUDIO TITLE "Вниз по матушке, по Волге" PERFORMER "Feodor Chaliapin" INDEX 01 00:00:00FILE "Feodor Chaliapin - Легенды русской эстрады - CD1 - 02. Легенда о двенадцати разбойниках.wav" WAVE TRACK 02 AUDIO TITLE "Легенда о двенадцати разбойниках" PERFORMER "Feodor Chaliapin" INDEX 01 00:00:00FILE "Feodor Chaliapin - Легенды русской эстрады - CD1 - 03. Лучинушка.wav" WAVE TRACK 03 AUDIO TITLE "Лучинушка" PERFORMER "Feodor Chaliapin" INDEX 01 00:00:00FILE "Feodor Chaliapin - Легенды русской эстрады - CD1 - 04. Вдоль по Питерской.wav" WAVE TRACK 04 AUDIO TITLE "Вдоль по Питерской" PERFORMER "Feodor Chaliapin" INDEX 01 00:00:00FILE "Feodor Chaliapin - Легенды русской эстрады - CD1 - 05. Очи черные.wav" WAVE TRACK 05 AUDIO TITLE "Очи черные" PERFORMER "Feodor Chaliapin" INDEX 01 00:00:00FILE "Feodor Chaliapin - Легенды русской эстрады - CD1 - 06. Прощай, радость.wav" WAVE TRACK 06 AUDIO TITLE "Прощай, радость" PERFORMER "Feodor Chaliapin" INDEX 01 00:00:00FILE "Feodor Chaliapin - Легенды русской эстрады - CD1 - 07. Из-за острова на стрежень.wav" WAVE TRACK 07 AUDIO TITLE "Из-за острова на стрежень" PERFORMER "Feodor Chaliapin" INDEX 01 00:00:00FILE "Feodor Chaliapin - Легенды русской эстрады - CD1 - 08. Эх, ухнем.wav" WAVE TRACK 08 AUDIO TITLE "Эх, ухнем" PERFORMER "Feodor Chaliapin" INDEX 01 00:00:00FILE "Feodor Chaliapin - Легенды русской эстрады - CD1 - 09. Дубинушка.wav" WAVE TRACK 09 AUDIO TITLE "Дубинушка" PERFORMER "Feodor Chaliapin" INDEX 01 00:00:00FILE "Feodor Chaliapin - Легенды русской эстрады - CD1 - 10. Ноченька.wav" WAVE TRACK 10 AUDIO TITLE "Ноченька" PERFORMER "Feodor Chaliapin" INDEX 01 00:00:00FILE "Feodor Chaliapin - Легенды русской эстрады - CD1 - 11. Из-под дуба, из-под вяза.wav" WAVE TRACK 11 AUDIO TITLE "Из-под дуба, из-под вяза" PERFORMER "Feodor Chaliapin" INDEX 01 00:00:00FILE "Feodor Chaliapin - Легенды русской эстрады - CD1 - 12. (М. Слонов) Прощальное слово.wav" WAVE TRACK 12 AUDIO TITLE "(М. Слонов) Прощальное слово" PERFORMER "Feodor Chaliapin" INDEX 01 00:00:00FILE "Feodor Chaliapin - Легенды русской эстрады - CD1 - 13. (Ф. Кенеман) Как король шел на войну.wav" WAVE TRACK 13 AUDIO TITLE "(Ф. Кенеман) Как король шел на войну" PERFORMER "Feodor Chaliapin" INDEX 01 00:00:00FILE "Feodor Chaliapin - Легенды русской эстрады - CD1 - 14. (Г. Лишин) Она хохотала.wav" WAVE TRACK 14 AUDIO TITLE "(Г. Лишин) Она хохотала" PERFORMER "Feodor Chaliapin" INDEX 01 00:00:00FILE "Feodor Chaliapin - Легенды русской эстрады - CD1 - 15. (М. Глинка) Сомнение.wav" WAVE TRACK 15 AUDIO TITLE "(М. Глинка) Сомнение" PERFORMER "Feodor Chaliapin" INDEX 01 00:00:00FILE "Feodor Chaliapin - Легенды русской эстрады - CD1 - 16. (А. Даргомыжский) Старый капрал.wav" WAVE TRACK 16 AUDIO TITLE "(А. Даргомыжский) Старый капрал" PERFORMER "Feodor Chaliapin" INDEX 01 00:00:00FILE "Feodor Chaliapin - Легенды русской эстрады - CD1 - 17. (А. Рубинштейн) Клубится волною....wav" WAVE TRACK 17 AUDIO TITLE "(А. Рубинштейн) Клубится волною..." PERFORMER "Feodor Chaliapin" INDEX 01 00:00:00FILE "Feodor Chaliapin - Легенды русской эстрады - CD1 - 18. (Н. Римский-Корсаков) Пророк.wav" WAVE TRACK 18 AUDIO TITLE "(Н. Римский-Корсаков) Пророк" PERFORMER "Feodor Chaliapin" INDEX 01 00:00:00FILE "Feodor Chaliapin - Легенды русской эстрады - CD1 - 19. (П. Чайковский) Благославляю вас, леса.wav" WAVE TRACK 19 AUDIO TITLE "(П. Чайковский) Благославляю вас, леса" PERFORMER "Feodor Chaliapin" INDEX 01 00:00:00FILE "Feodor Chaliapin - Легенды русской эстрады - CD1 - 20. (М. Мусоргский) Песня Мефистофеля в погребке Ауэрбаха.wav" WAVE TRACK 20 AUDIO TITLE "(М. Мусоргский) Песня Мефистофеля в погребке Ауэрбаха" PERFORMER "Feodor Chaliapin" INDEX 01 00:00:00

Легенды русской эстрады - CD2.cue

REM GENRE VocalREM DATE 2000REM DISCID 2C0F7B14REM COMMENT "ExactAudioCopy v1.0b6"PERFORMER "Feodor Chaliapin"TITLE "Легенды русской эстрады - CD2"FILE "Feodor Chaliapin - Легенды русской эстрады - CD2 - 01. Зашумела, разгулялась.wav" WAVE TRACK 01 AUDIO TITLE "Зашумела, разгулялась" PERFORMER "Feodor Chaliapin" INDEX 01 00:00:00FILE "Feodor Chaliapin - Легенды русской эстрады - CD2 - 02. Ах, ты, солнце красное.wav" WAVE TRACK 02 AUDIO TITLE "Ах, ты, солнце красное" PERFORMER "Feodor Chaliapin" INDEX 01 00:00:00FILE "Feodor Chaliapin - Легенды русской эстрады - CD2 - 03. Ноченька.wav" WAVE TRACK 03 AUDIO TITLE "Ноченька" PERFORMER "Feodor Chaliapin" INDEX 01 00:00:00FILE "Feodor Chaliapin - Легенды русской эстрады - CD2 - 04. Былина о царе Иване Васильевиче.wav" WAVE TRACK 04 AUDIO TITLE "Былина о царе Иване Васильевиче" PERFORMER "Feodor Chaliapin" INDEX 01 00:00:00FILE "Feodor Chaliapin - Легенды русской эстрады - CD2 - 05. Было у тещеньки семеро зятьев.wav" WAVE TRACK 05 AUDIO TITLE "Было у тещеньки семеро зятьев" PERFORMER "Feodor Chaliapin" INDEX 01 00:00:00FILE "Feodor Chaliapin - Легенды русской эстрады - CD2 - 06. Ой, у лузi.wav" WAVE TRACK 06 AUDIO TITLE "Ой, у лузi" PERFORMER "Feodor Chaliapin" INDEX 01 00:00:00FILE "Feodor Chaliapin - Легенды русской эстрады - CD2 - 07. Элегия.wav" WAVE TRACK 07 AUDIO TITLE "Элегия" PERFORMER "Feodor Chaliapin" INDEX 01 00:00:00FILE "Feodor Chaliapin - Легенды русской эстрады - CD2 - 08. Ночной смотр.wav" WAVE TRACK 08 AUDIO TITLE "Ночной смотр" PERFORMER "Feodor Chaliapin" INDEX 01 00:00:00FILE "Feodor Chaliapin - Легенды русской эстрады - CD2 - 09. Узник.wav" WAVE TRACK 09 AUDIO TITLE "Узник" PERFORMER "Feodor Chaliapin" INDEX 01 00:00:00FILE "Feodor Chaliapin - Легенды русской эстрады - CD2 - 10. Соловей.wav" WAVE TRACK 10 AUDIO TITLE "Соловей" PERFORMER "Feodor Chaliapin" INDEX 01 00:00:00FILE "Feodor Chaliapin - Легенды русской эстрады - CD2 - 11. На холмах Грузии....wav" WAVE TRACK 11 AUDIO TITLE "На холмах Грузии..." PERFORMER "Feodor Chaliapin" INDEX 01 00:00:00FILE "Feodor Chaliapin - Легенды русской эстрады - CD2 - 12. Вчера мы встретились.wav" WAVE TRACK 12 AUDIO TITLE "Вчера мы встретились" PERFORMER "Feodor Chaliapin" INDEX 01 00:00:00FILE "Feodor Chaliapin - Легенды русской эстрады - CD2 - 13. Былина об Илье Муромце.wav" WAVE TRACK 13 AUDIO TITLE "Былина об Илье Муромце" PERFORMER "Feodor Chaliapin" INDEX 01 00:00:00FILE "Feodor Chaliapin - Легенды русской эстрады - CD2 - 14. Солнце всходит и заходит.wav" WAVE TRACK 14 AUDIO TITLE "Солнце всходит и заходит" PERFORMER "Feodor Chaliapin" INDEX 01 00:00:00FILE "Feodor Chaliapin - Легенды русской эстрады - CD2 - 15. Эх, ты, Ванька.wav" WAVE TRACK 15 AUDIO TITLE "Эх, ты, Ванька" PERFORMER "Feodor Chaliapin" INDEX 01 00:00:00FILE "Feodor Chaliapin - Легенды русской эстрады - CD2 - 16. Не велят Маше.wav" WAVE TRACK 16 AUDIO TITLE "Не велят Маше" PERFORMER "Feodor Chaliapin" INDEX 01 00:00:00FILE "Feodor Chaliapin - Легенды русской эстрады - CD2 - 17. Не осенний мелкий дождичек.wav" WAVE TRACK 17 AUDIO TITLE "Не осенний мелкий дождичек" PERFORMER "Feodor Chaliapin" INDEX 01 00:00:00FILE "Feodor Chaliapin - Легенды русской эстрады - CD2 - 18. Ты взойди, солнце красное.wav" WAVE TRACK 18 AUDIO TITLE "Ты взойди, солнце красное" PERFORMER "Feodor Chaliapin" INDEX 01 00:00:00FILE "Feodor Chaliapin - Легенды русской эстрады - CD2 - 19. Трепак.wav" WAVE TRACK 19 AUDIO TITLE "Трепак" PERFORMER "Feodor Chaliapin" INDEX 01 00:00:00FILE "Feodor Chaliapin - Легенды русской эстрады - CD2 - 20. Разочарование.wav" WAVE TRACK 20 AUDIO TITLE "Разочарование" PERFORMER "Feodor Chaliapin" INDEX 01 00:00:00



Показать сообщения:    

Текущее время: 08-Дек 19:09

Часовой пояс: UTC + 3


Вы не можете начинать темы
Вы не можете отвечать на сообщения
Вы не можете редактировать свои сообщения
Вы не можете удалять свои сообщения
Вы не можете голосовать в опросах
Вы не можете прикреплять файлы к сообщениям
Вы не можете скачивать файлы