(Vocal / Вокал) Фёдор Шаляпин/Feodor Chaliapin - Feodor Chaliapin - 1999 (PRS 0022, АМЛ) (Глинка,Даргомыжский,Rossini,Мусоргский,Кёнеман,Massenet,Schubert,Beethoven,Глазунов,Bellini,Donizetti,Meyerbeer,Boito,Gounod) APE (tracks+.cue) lossless


 

[Цитировать]

Фёдор Шаляпин/Feodor Chaliapin - Feodor Chaliapin
Жанр: Vocal / Вокал
Страна-производитель диска: Россия
Год издания диска: 1999
Издатель (лейбл): PRS (Petersburg Recording Studio)
Номер по каталогу: 0022
Аудиокодек: APE
Тип рипа: tracks+.cue
Битрейт аудио: lossless
Продолжительность: 66:14
Источник: собственный рип
Наличие сканов в содержимом раздачи: да
Треклист:
1. Глинка. Рондо Фарлафа («Руслан и Людмила»)
2. Даргомыжский. Ария Мельника («Русалка»)
3. Россини. Ария Дона Базилио («Севильский цирюльник»)
4. Мусоргский. Песня о блохе
5. Кенеман. Как король шёл на войну
6. Массне. Элегия
7. Шуберт. «Двойник»
8. Бетховен. «Под камнем могильным»
9. Мусоргский. Трепак («Песни и пляски смерти»)
10. Глазунов. «Вакхическая песнь» («Что смолкнул веселия глас»)
11. Беллини. Речитатив и ария Рудольфо («Сомнамбула»)
12. Доницетти. Каватина и ария дона Альфонсо («Лукреция Борджиа»)
13. Мейербер. Воззвание Бертрама («Роберт-Дьявол»)
14. Бойто. Ария Мефистофеля “Ave Signor” («Мефистофель»)
15. Гуно. Куплеты Мефистофеля («Фауст»)
16. Гуно. Заклинание цветов («Фауст»)
17. Гуно. Сцена у церкви («Фауст»)
18. Гуно. Серенада Мефистофеля («Фауст»)
Исполнители:
Федор Шаляпин, бас

Лог создания рипа

Exact Audio Copy V1.0 beta 4 from 7. December 2014
EAC extraction logfile from 18. February 2015, 22:52
Feodor Chaliapin / Feodor Chaliapin
Used drive : Optiarc DVD RW AD-7200S Adapter: 1 ID: 0
Read mode : SecureUtilize accurate stream : YesDefeat audio cache : YesMake use of C2 pointers : No
Read offset correction : 48Overread into Lead-In and Lead-Out : NoFill up missing offset samples with silence : YesDelete leading and trailing silent blocks : NoNull samples used in CRC calculations : YesUsed interface : Native Win32 interface for Win NT & 2000Gap handling : Appended to previous track
Used output format : User Defined EncoderSelected bitrate : 1024 kBit/sQuality : HighAdd ID3 tag : NoCommand line compressor : C:\program files\Monkey's Audio\wapet.exeAdditional command line options : %dest% -t "Genre=%genre%" -t "Artist=%artist%" -t "Title=%title%" -t "Album=%albumtitle%" -t "Year=%year%" -t "Track=%tracknr%" -t "Comment=%comment%" mac.exe %source% %dest% -c4000
TOC of the extracted CD
Track | Start | Length | Start sector | End sector --------------------------------------------------------- 1 | 0:00.02 | 3:03.65 | 2 | 13791 2 | 3:03.67 | 3:51.33 | 13792 | 31149 3 | 6:55.25 | 4:35.52 | 31150 | 51826 4 | 11:31.02 | 2:57.53 | 51827 | 65154 5 | 14:28.55 | 3:40.15 | 65155 | 81669 6 | 18:08.70 | 4:17.70 | 81670 | 101014 7 | 22:26.65 | 4:08.00 | 101015 | 119614 8 | 26:34.65 | 3:41.55 | 119615 | 136244 9 | 30:16.45 | 4:25.02 | 136245 | 156121 10 | 34:41.47 | 3:38.45 | 156122 | 172516 11 | 38:20.17 | 3:06.18 | 172517 | 186484 12 | 41:26.35 | 3:36.37 | 186485 | 202721 13 | 45:02.72 | 4:09.40 | 202722 | 221436 14 | 49:12.37 | 4:02.35 | 221437 | 239621 15 | 53:14.72 | 3:33.40 | 239622 | 255636 16 | 56:48.37 | 2:53.70 | 255637 | 268681 17 | 59:42.32 | 4:45.08 | 268682 | 290064 18 | 64:27.40 | 3:14.55 | 290065 | 304669
Track 1
Filename D:\Feodor Chaliapin\(1999) Feodor Chaliapin\Feodor Chaliapin - Feodor Chaliapin - 01. Glinka ''Farlaf's Rondo''.wav
Pre-gap length 0:00:02.02
Peak level 59.9 % Extraction speed 2.4 X Track quality 100.0 % Test CRC 178AB296 Copy CRC 178AB296 Accurately ripped (confidence 1) [B57FFB6E] (AR v1) Copy OK
Track 2
Filename D:\Feodor Chaliapin\(1999) Feodor Chaliapin\Feodor Chaliapin - Feodor Chaliapin - 02. Dargomyzhsky ''Aria of the Miller''.wav
Pre-gap length 0:00:01.67
Peak level 71.0 % Extraction speed 2.7 X Track quality 100.0 % Test CRC 6E56F610 Copy CRC 6E56F610 Accurately ripped (confidence 1) [F2A31A55] (AR v1) Copy OK
Track 3
Filename D:\Feodor Chaliapin\(1999) Feodor Chaliapin\Feodor Chaliapin - Feodor Chaliapin - 03. Rossini ''Aria of Don Basilio''.wav
Pre-gap length 0:00:02.10
Peak level 75.6 % Extraction speed 3.1 X Track quality 100.0 % Test CRC CFAB57F8 Copy CRC CFAB57F8 Accurately ripped (confidence 1) [CC8A1B15] (AR v1) Copy OK
Track 4
Filename D:\Feodor Chaliapin\(1999) Feodor Chaliapin\Feodor Chaliapin - Feodor Chaliapin - 04. Mussorgsky ''Song of the Flea''.wav
Pre-gap length 0:00:01.32
Peak level 72.6 % Extraction speed 3.1 X Track quality 100.0 % Test CRC A3DF9A63 Copy CRC A3DF9A63 Accurately ripped (confidence 1) [62D18C63] (AR v1) Copy OK
Track 5
Filename D:\Feodor Chaliapin\(1999) Feodor Chaliapin\Feodor Chaliapin - Feodor Chaliapin - 05. Koenemann ''When the King Went Forth to War''.wav
Pre-gap length 0:00:01.60
Peak level 90.6 % Extraction speed 3.3 X Track quality 100.0 % Test CRC 48043BB2 Copy CRC 48043BB2 Accurately ripped (confidence 1) [743AAF87] (AR v1) Copy OK
Track 6
Filename D:\Feodor Chaliapin\(1999) Feodor Chaliapin\Feodor Chaliapin - Feodor Chaliapin - 06. Massenet ''Elegie''.wav
Pre-gap length 0:00:01.55
Peak level 100.0 % Extraction speed 3.2 X Track quality 99.9 % Test CRC D1CF543D Copy CRC D1CF543D Accurately ripped (confidence 1) [A8823AF2] (AR v1) Copy OK
Track 7
Filename D:\Feodor Chaliapin\(1999) Feodor Chaliapin\Feodor Chaliapin - Feodor Chaliapin - 07. Schubert ''Der Doppelganger's''.wav
Pre-gap length 0:00:01.35
Peak level 98.4 % Extraction speed 3.3 X Track quality 99.9 % Test CRC F3441FCB Copy CRC F3441FCB Accurately ripped (confidence 1) [DB037F12] (AR v1) Copy OK
Track 8
Filename D:\Feodor Chaliapin\(1999) Feodor Chaliapin\Feodor Chaliapin - Feodor Chaliapin - 08. Beethoven ''In Questa Tomba Obscura''.wav
Pre-gap length 0:00:01.63
Peak level 98.4 % Extraction speed 3.4 X Track quality 99.9 % Test CRC 7C658B0E Copy CRC 7C658B0E Accurately ripped (confidence 1) [7D6531C1] (AR v1) Copy OK
Track 9
Filename D:\Feodor Chaliapin\(1999) Feodor Chaliapin\Feodor Chaliapin - Feodor Chaliapin - 09. Mussorgsky ''Trepak''.wav
Pre-gap length 0:00:01.48
Peak level 71.2 % Extraction speed 4.2 X Track quality 100.0 % Test CRC 31DA8844 Copy CRC 31DA8844 Accurately ripped (confidence 1) [64902A1A] (AR v1) Copy OK
Track 10
Filename D:\Feodor Chaliapin\(1999) Feodor Chaliapin\Feodor Chaliapin - Feodor Chaliapin - 10. Glazunov ''Bacchanal Song''.wav
Pre-gap length 0:00:01.50
Peak level 63.6 % Extraction speed 4.2 X Track quality 100.0 % Test CRC 42E952DE Copy CRC 42E952DE Accurately ripped (confidence 1) [C4029D05] (AR v1) Copy OK
Track 11
Filename D:\Feodor Chaliapin\(1999) Feodor Chaliapin\Feodor Chaliapin - Feodor Chaliapin - 11. Bellini ''Recitative and Aria of Rudolfo''.wav
Pre-gap length 0:00:01.45
Peak level 72.6 % Extraction speed 3.6 X Track quality 99.9 % Test CRC 2996CE0C Copy CRC 2996CE0C Accurately ripped (confidence 1) [1B46D35B] (AR v1) Copy OK
Track 12
Filename D:\Feodor Chaliapin\(1999) Feodor Chaliapin\Feodor Chaliapin - Feodor Chaliapin - 12. Donizetti ''Vieni, La Mia Nova''.wav
Pre-gap length 0:00:01.50
Peak level 91.5 % Extraction speed 4.4 X Track quality 100.0 % Test CRC 6BD0B1EB Copy CRC 6BD0B1EB Accurately ripped (confidence 1) [45217AB4] (AR v1) Copy OK
Track 13
Filename D:\Feodor Chaliapin\(1999) Feodor Chaliapin\Feodor Chaliapin - Feodor Chaliapin - 13. Meyerber ''Suore, Che Risposate''.wav
Pre-gap length 0:00:01.57
Peak level 86.6 % Extraction speed 4.7 X Track quality 100.0 % Test CRC 44F1389D Copy CRC 44F1389D Accurately ripped (confidence 1) [53AA1589] (AR v1) Copy OK
Track 14
Filename D:\Feodor Chaliapin\(1999) Feodor Chaliapin\Feodor Chaliapin - Feodor Chaliapin - 14. Boito ''Ave Signor''.wav
Pre-gap length 0:00:01.47
Peak level 89.7 % Extraction speed 4.8 X Track quality 100.0 % Test CRC 422C08C7 Copy CRC 422C08C7 Accurately ripped (confidence 1) [118FC7CB] (AR v1) Copy OK
Track 15
Filename D:\Feodor Chaliapin\(1999) Feodor Chaliapin\Feodor Chaliapin - Feodor Chaliapin - 15. Gounod ''Un rat...Le Veau D'Or.wav
Pre-gap length 0:00:01.62
Peak level 100.0 % Extraction speed 4.8 X Track quality 100.0 % Test CRC 43A61AA3 Copy CRC 43A61AA3 Accurately ripped (confidence 1) [6217690A] (AR v1) Copy OK
Track 16
Filename D:\Feodor Chaliapin\(1999) Feodor Chaliapin\Feodor Chaliapin - Feodor Chaliapin - 16. Gounod ''Il etait tamps!''.wav
Pre-gap length 0:00:01.60
Peak level 81.5 % Extraction speed 4.0 X Track quality 99.9 % Test CRC 15044A34 Copy CRC 15044A34 Accurately ripped (confidence 1) [81EB5F38] (AR v1) Copy OK
Track 17
Filename D:\Feodor Chaliapin\(1999) Feodor Chaliapin\Feodor Chaliapin - Feodor Chaliapin - 17. Gounod ''Scene at the Curch.wav
Pre-gap length 0:00:01.60
Peak level 100.0 % Extraction speed 5.2 X Track quality 100.0 % Test CRC 6EEC4486 Copy CRC 6EEC4486 Accurately ripped (confidence 1) [8206D75E] (AR v1) Copy OK
Track 18
Filename D:\Feodor Chaliapin\(1999) Feodor Chaliapin\Feodor Chaliapin - Feodor Chaliapin - 18. Gounod ''Vous Qui Faites L'endromie''.wav
Pre-gap length 0:00:01.63
Peak level 100.0 % Extraction speed 5.1 X Track quality 100.0 % Test CRC 2EF24823 Copy CRC 2EF24823 Accurately ripped (confidence 1) [E52F029B] (AR v1) Copy OK
All tracks accurately ripped
No errors occurred
End of status report
==== Log checksum FB532B623512C559C578C57F3752CC6438E2F50472496BBFBD56F3A79AEB6D3E ====

Содержание индексной карты (.CUE)

REM GENRE ClassicalREM DATE 1999REM DISCID 130FDE12REM COMMENT "ExactAudioCopy v1.0b4"PERFORMER "Feodor Chaliapin"TITLE "Feodor Chaliapin"FILE "Feodor Chaliapin - Feodor Chaliapin - 01. Glinka ''Farlaf's Rondo''.wav" WAVE TRACK 01 AUDIO TITLE "Glinka 'Farlaf's Rondo'" PERFORMER "Feodor Chaliapin" PREGAP 00:00:02 INDEX 01 00:00:00 TRACK 02 AUDIO TITLE "Dargomyzhsky 'Aria of the Miller'" PERFORMER "Feodor Chaliapin" INDEX 00 03:01:73FILE "Feodor Chaliapin - Feodor Chaliapin - 02. Dargomyzhsky ''Aria of the Miller''.wav" WAVE INDEX 01 00:00:00 TRACK 03 AUDIO TITLE "Rossini 'Aria of Don Basilio'" PERFORMER "Feodor Chaliapin" INDEX 00 03:49:23FILE "Feodor Chaliapin - Feodor Chaliapin - 03. Rossini ''Aria of Don Basilio''.wav" WAVE INDEX 01 00:00:00 TRACK 04 AUDIO TITLE "Mussorgsky 'Song of the Flea'" PERFORMER "Feodor Chaliapin" INDEX 00 04:34:20FILE "Feodor Chaliapin - Feodor Chaliapin - 04. Mussorgsky ''Song of the Flea''.wav" WAVE INDEX 01 00:00:00 TRACK 05 AUDIO TITLE "Koenemann 'When the King Went Forth to War'" PERFORMER "Feodor Chaliapin" INDEX 00 02:55:68FILE "Feodor Chaliapin - Feodor Chaliapin - 05. Koenemann ''When the King Went Forth to War''.wav" WAVE INDEX 01 00:00:00 TRACK 06 AUDIO TITLE "Massenet 'Elegie'" PERFORMER "Feodor Chaliapin" INDEX 00 03:38:35FILE "Feodor Chaliapin - Feodor Chaliapin - 06. Massenet ''Elegie''.wav" WAVE INDEX 01 00:00:00 TRACK 07 AUDIO TITLE "Schubert 'Der Doppelganger's'" PERFORMER "Feodor Chaliapin" INDEX 00 04:16:35FILE "Feodor Chaliapin - Feodor Chaliapin - 07. Schubert ''Der Doppelganger's''.wav" WAVE INDEX 01 00:00:00 TRACK 08 AUDIO TITLE "Beethoven 'In Questa Tomba Obscura'" PERFORMER "Feodor Chaliapin" INDEX 00 04:06:12FILE "Feodor Chaliapin - Feodor Chaliapin - 08. Beethoven ''In Questa Tomba Obscura''.wav" WAVE INDEX 01 00:00:00 TRACK 09 AUDIO TITLE "Mussorgsky 'Trepak'" PERFORMER "Feodor Chaliapin" INDEX 00 03:40:07FILE "Feodor Chaliapin - Feodor Chaliapin - 09. Mussorgsky ''Trepak''.wav" WAVE INDEX 01 00:00:00 TRACK 10 AUDIO TITLE "Glazunov 'Bacchanal Song'" PERFORMER "Feodor Chaliapin" INDEX 00 04:23:27FILE "Feodor Chaliapin - Feodor Chaliapin - 10. Glazunov ''Bacchanal Song''.wav" WAVE INDEX 01 00:00:00 TRACK 11 AUDIO TITLE "Bellini 'Recitative and Aria of Rudolfo'" PERFORMER "Feodor Chaliapin" INDEX 00 03:37:00FILE "Feodor Chaliapin - Feodor Chaliapin - 11. Bellini ''Recitative and Aria of Rudolfo''.wav" WAVE INDEX 01 00:00:00 TRACK 12 AUDIO TITLE "Donizetti 'Vieni, La Mia Nova'" PERFORMER "Feodor Chaliapin" INDEX 00 03:04:43FILE "Feodor Chaliapin - Feodor Chaliapin - 12. Donizetti ''Vieni, La Mia Nova''.wav" WAVE INDEX 01 00:00:00 TRACK 13 AUDIO TITLE "Meyerber 'Suore, Che Risposate'" PERFORMER "Feodor Chaliapin" INDEX 00 03:34:55FILE "Feodor Chaliapin - Feodor Chaliapin - 13. Meyerber ''Suore, Che Risposate''.wav" WAVE INDEX 01 00:00:00 TRACK 14 AUDIO TITLE "Boito 'Ave Signor'" PERFORMER "Feodor Chaliapin" INDEX 00 04:07:68FILE "Feodor Chaliapin - Feodor Chaliapin - 14. Boito ''Ave Signor''.wav" WAVE INDEX 01 00:00:00 TRACK 15 AUDIO TITLE "Gounod 'Un rat...Le Veau D'Or" PERFORMER "Feodor Chaliapin" INDEX 00 04:00:48FILE "Feodor Chaliapin - Feodor Chaliapin - 15. Gounod ''Un rat...Le Veau D'Or.wav" WAVE INDEX 01 00:00:00 TRACK 16 AUDIO TITLE "Gounod 'Il etait tamps!'" PERFORMER "Feodor Chaliapin" INDEX 00 03:31:55FILE "Feodor Chaliapin - Feodor Chaliapin - 16. Gounod ''Il etait tamps!''.wav" WAVE INDEX 01 00:00:00 TRACK 17 AUDIO TITLE "Gounod 'Scene at the Curch" PERFORMER "Feodor Chaliapin" INDEX 00 02:52:10FILE "Feodor Chaliapin - Feodor Chaliapin - 17. Gounod ''Scene at the Curch.wav" WAVE INDEX 01 00:00:00 TRACK 18 AUDIO TITLE "Gounod 'Vous Qui Faites L'endromie'" PERFORMER "Feodor Chaliapin" INDEX 00 04:43:20FILE "Feodor Chaliapin - Feodor Chaliapin - 18. Gounod ''Vous Qui Faites L'endromie''.wav" WAVE INDEX 01 00:00:00



Показать сообщения:    

Текущее время: 10-Дек 21:36

Часовой пояс: UTC + 3


Вы не можете начинать темы
Вы не можете отвечать на сообщения
Вы не можете редактировать свои сообщения
Вы не можете удалять свои сообщения
Вы не можете голосовать в опросах
Вы не можете прикреплять файлы к сообщениям
Вы не можете скачивать файлы