(Vocal / Вокал) Ф.Шаляпин/F.Chaliapin - Prima Voce: Chaliapin - 1991 (2CD) (Мусоргский,Рубинштейн,Brahms,Малашкин,Verdi,Римский-Корсаков,Бородин,Gounod,Mozart,Глинка,Puccini,Чайковский,Boito,Massenet,Beethoven,Рахманинов) APE (tracks+.cue) lossless


 

[Цитировать]

Фёдор Шаляпин/Feodor Chaliapin - Prima Voce: Chaliapin
Жанр: Vocal / Вокал
Страна-производитель диска: England
Год издания диска: 1991
Издатель (лейбл): Nimbus Records
Номер по каталогу: 7823
UPC: 083603782320
Дата записи: 1911-1936
Аудиокодек: APE
Тип рипа: tracks+.cue
Битрейт аудио: lossless
Продолжительность: 78:54+74:05
Источник: собственный рип
Наличие сканов в содержимом раздачи: да
Треклист:
Disc: 1
1. Boris Godounov, Pimens Narration
2. The Demon, Do Not Weep, Child
3. Mashenka
4. Sapphische Ode
5. The Song Of The Flea
6. Oh, Could I In Song Tell My Sorrow
7. Boris Godounov, Varlaams Song
8. Don Carlos, Dormiro Sol
9. Sadko, The Varangians Merchant's Song
10. The Son Of The Volga Boatman
11. Prince Igor, Galitzky's Song
12. Boris Godounov, Boris' Monologue
13. Faust, Vous Qui Faites L' endormie
14. Don Giovanni, Madamina
15. A Life For The Tsar, Susanin' s Recitative & Aria
16. La Boheme, Vecchia Zimarra
17. Pilgrim's Song
18. Mefistofele, Ave Signor
19. Mefistofele, Son Spirito Che Nega
20. Don Quichotte, Death Scene
Disc: 2
1. Boris Godounov, Boris' Monologue
2. Boris Godounov, Clock Scene
3. Boris Godounov, Farewell Prayer And Death
4. In Questa Tomba Oscura
5. Prince Igor, Khan Kontchak' s Aria
6. Folk Song, Down The Petersky
7. Aleko, Aleko's Cavatina
8. Faust, Un, Rat...Le Reau D'or
9. Nochen' ka
10. Rusalka, The Miller' s Aria
11. Persian Love Song
12. Russlan And Ludmilla, Farlaf's Rondo
13. Elegie
14. Twofold Litany
15. Chanson De La Mort De Don Quichotte
16. The Song Of The Flea
Исполнители:
Feodor Chaliapin Bass (Vocal), Primary Artist

Feodor Chaliapin - Prima Voce - Chaliapin - CD1.log

Exact Audio Copy V1.0 beta 6 from 9. April 2015
EAC extraction logfile from 12. May 2015, 20:17
Feodor Chaliapin / Prima Voce: Chaliapin - CD1
Used drive : Optiarc DVD RW AD-7200S Adapter: 1 ID: 1
Read mode : SecureUtilize accurate stream : YesDefeat audio cache : YesMake use of C2 pointers : No
Read offset correction : 48Overread into Lead-In and Lead-Out : NoFill up missing offset samples with silence : YesDelete leading and trailing silent blocks : NoNull samples used in CRC calculations : YesUsed interface : Native Win32 interface for Win NT & 2000Gap handling : Appended to previous track
Used output format : User Defined EncoderSelected bitrate : 1024 kBit/sQuality : HighAdd ID3 tag : NoCommand line compressor : C:\program files\Monkey's Audio\wapet.exeAdditional command line options : %dest% -t "Genre=%genre%" -t "Artist=%artist%" -t "Title=%title%" -t "Album=%albumtitle%" -t "Year=%year%" -t "Track=%tracknr%" -t "Comment=%comment%" mac.exe %source% %dest% -c4000
TOC of the extracted CD
Track | Start | Length | Start sector | End sector --------------------------------------------------------- 1 | 0:00.00 | 4:25.00 | 0 | 19874 2 | 4:25.00 | 3:20.00 | 19875 | 34874 3 | 7:45.00 | 3:55.00 | 34875 | 52499 4 | 11:40.00 | 3:20.00 | 52500 | 67499 5 | 15:00.00 | 3:22.00 | 67500 | 82649 6 | 18:22.00 | 2:39.00 | 82650 | 94574 7 | 21:01.00 | 2:44.00 | 94575 | 106874 8 | 23:45.00 | 4:31.00 | 106875 | 127199 9 | 28:16.00 | 3:04.00 | 127200 | 140999 10 | 31:20.00 | 3:29.00 | 141000 | 156674 11 | 34:49.00 | 3:38.00 | 156675 | 173024 12 | 38:27.00 | 4:53.00 | 173025 | 194999 13 | 43:20.00 | 2:58.00 | 195000 | 208349 14 | 46:18.00 | 5:43.00 | 208350 | 234074 15 | 52:01.00 | 4:56.00 | 234075 | 256274 16 | 56:57.00 | 3:11.00 | 256275 | 270599 17 | 60:08.00 | 3:10.00 | 270600 | 284849 18 | 63:18.00 | 3:20.00 | 284850 | 299849 19 | 66:38.00 | 3:22.00 | 299850 | 314999 20 | 70:00.00 | 8:54.00 | 315000 | 355049
Track 1
Filename D:\Music\Feodor Chaliapin\(1991) Prima Voce - Chaliapin - CD1\Feodor Chaliapin - Prima Voce - Chaliapin - CD1 - 01. Boris Godounov, Mussorgsky, Pimen's narration 26 Nov 1911.wav
Pre-gap length 0:00:02.00
Peak level 57.5 % Extraction speed 2.6 X Track quality 100.0 % Test CRC 7EE5C0DD Copy CRC 7EE5C0DD Cannot be verified as accurate (confidence 2) [F4AC94EF], AccurateRip returned [82A2E968] (AR v2) Copy OK
Track 2
Filename D:\Music\Feodor Chaliapin\(1991) Prima Voce - Chaliapin - CD1\Feodor Chaliapin - Prima Voce - Chaliapin - CD1 - 02. The Demon, Rubinstein, Do not weep, child [sung in Russian] 15 Oct 1911.wav
Peak level 52.4 % Extraction speed 2.7 X Track quality 100.0 % Test CRC 328F8598 Copy CRC 328F8598 Cannot be verified as accurate (confidence 2) [B803EFA3], AccurateRip returned [055583CC] (AR v2) Copy OK
Track 3
Filename D:\Music\Feodor Chaliapin\(1991) Prima Voce - Chaliapin - CD1\Feodor Chaliapin - Prima Voce - Chaliapin - CD1 - 03. Folk song, Mashenka 30 Sept 1911.wav
Peak level 70.4 % Extraction speed 2.9 X Track quality 100.0 % Test CRC C95626AB Copy CRC C95626AB Cannot be verified as accurate (confidence 2) [3C4057CA], AccurateRip returned [3E7EAC3C] (AR v2) Copy OK
Track 4
Filename D:\Music\Feodor Chaliapin\(1991) Prima Voce - Chaliapin - CD1\Feodor Chaliapin - Prima Voce - Chaliapin - CD1 - 04. Brahms, Sapphische Ode 12 Jan 1914.wav
Peak level 50.4 % Extraction speed 3.1 X Track quality 100.0 % Test CRC 8E2FAC83 Copy CRC 8E2FAC83 Cannot be verified as accurate (confidence 2) [1992DB41], AccurateRip returned [18DF5DD5] (AR v2) Copy OK
Track 5
Filename D:\Music\Feodor Chaliapin\(1991) Prima Voce - Chaliapin - CD1\Feodor Chaliapin - Prima Voce - Chaliapin - CD1 - 05. Mussorgsky, The song of the flea 10 Oct 1921.wav
Peak level 83.1 % Extraction speed 3.2 X Track quality 100.0 % Test CRC 722BCDCB Copy CRC 722BCDCB Cannot be verified as accurate (confidence 2) [1C758E2A], AccurateRip returned [99B9CD92] (AR v2) Copy OK
Track 6
Filename D:\Music\Feodor Chaliapin\(1991) Prima Voce - Chaliapin - CD1\Feodor Chaliapin - Prima Voce - Chaliapin - CD1 - 06. Malashkin, Oh, could I in song tell my sorrow [sung in Russian] 11 Oct 1921.wav
Peak level 55.8 % Extraction speed 2.7 X Track quality 99.9 % Test CRC 150D4142 Copy CRC 150D4142 Cannot be verified as accurate (confidence 2) [A97C506B], AccurateRip returned [D06DD87F] (AR v2) Copy OK
Track 7
Filename D:\Music\Feodor Chaliapin\(1991) Prima Voce - Chaliapin - CD1\Feodor Chaliapin - Prima Voce - Chaliapin - CD1 - 07. Boris Godounov, Mussorgsky, Varlaam's song 30 Jan 1922.wav
Peak level 87.7 % Extraction speed 2.8 X Track quality 99.9 % Test CRC 3B0E6108 Copy CRC 3B0E6108 Cannot be verified as accurate (confidence 2) [C66F5736], AccurateRip returned [E92A8983] (AR v2) Copy OK
Track 8
Filename D:\Music\Feodor Chaliapin\(1991) Prima Voce - Chaliapin - CD1\Feodor Chaliapin - Prima Voce - Chaliapin - CD1 - 08. Don Carlos, Verdi, Dormiro sol (King Philip's aria) 31 Jan 1922.wav
Peak level 50.8 % Extraction speed 3.8 X Track quality 100.0 % Test CRC 8BA66130 Copy CRC 8BA66130 Cannot be verified as accurate (confidence 2) [37F4C0DC], AccurateRip returned [DD9E7311] (AR v2) Copy OK
Track 9
Filename D:\Music\Feodor Chaliapin\(1991) Prima Voce - Chaliapin - CD1\Feodor Chaliapin - Prima Voce - Chaliapin - CD1 - 09. Sadko, Rimsky-Korsakov, The Varangian Merchant's song 9 Oct 1922.wav
Peak level 51.1 % Extraction speed 3.7 X Track quality 100.0 % Test CRC 2D8AD9DE Copy CRC 2D8AD9DE Cannot be verified as accurate (confidence 2) [EBACC942], AccurateRip returned [75CD9A6A] (AR v2) Copy OK
Track 10
Filename D:\Music\Feodor Chaliapin\(1991) Prima Voce - Chaliapin - CD1\Feodor Chaliapin - Prima Voce - Chaliapin - CD1 - 10. Folk song (arr. Chaliapin & Koenemann), The song of the Volga boatmen 9 Oct 1922.wav
Peak level 58.9 % Extraction speed 3.9 X Track quality 100.0 % Test CRC 98FCFC60 Copy CRC 98FCFC60 Cannot be verified as accurate (confidence 2) [46A72C1D], AccurateRip returned [893640F4] (AR v2) Copy OK
Track 11
Filename D:\Music\Feodor Chaliapin\(1991) Prima Voce - Chaliapin - CD1\Feodor Chaliapin - Prima Voce - Chaliapin - CD1 - 11. Prince Igor, Borodin, Galitzky's song 22 Nov 1922.wav
Peak level 61.5 % Extraction speed 4.1 X Track quality 100.0 % Test CRC 3C54666E Copy CRC 3C54666E Cannot be verified as accurate (confidence 2) [847C8845], AccurateRip returned [CED6747A] (AR v2) Copy OK
Track 12
Filename D:\Music\Feodor Chaliapin\(1991) Prima Voce - Chaliapin - CD1\Feodor Chaliapin - Prima Voce - Chaliapin - CD1 - 12. Boris Godounov, Mussorgsky, Boris' monologue 26 June 1923.wav
Peak level 51.6 % Extraction speed 4.4 X Track quality 100.0 % Test CRC 05575EEB Copy CRC 05575EEB Cannot be verified as accurate (confidence 2) [75609F7C], AccurateRip returned [33BFD0F1] (AR v2) Copy OK
Track 13
Filename D:\Music\Feodor Chaliapin\(1991) Prima Voce - Chaliapin - CD1\Feodor Chaliapin - Prima Voce - Chaliapin - CD1 - 13. Faust, Gounod, Vous qui faites l'endormie (Mephistopheles' serenade) 2 July 1923.wav
Peak level 53.2 % Extraction speed 4.3 X Track quality 100.0 % Test CRC 0BB7CF5B Copy CRC 0BB7CF5B Cannot be verified as accurate (confidence 2) [37BC8A62], AccurateRip returned [104A6971] (AR v2) Copy OK
Track 14
Filename D:\Music\Feodor Chaliapin\(1991) Prima Voce - Chaliapin - CD1\Feodor Chaliapin - Prima Voce - Chaliapin - CD1 - 14. Don Giovanni, Mozart, Madamina (Catalogue aria) 25 Sept 1923.wav
Peak level 54.7 % Extraction speed 4.8 X Track quality 100.0 % Test CRC 30DEC77A Copy CRC 30DEC77A Cannot be verified as accurate (confidence 2) [8DA853F1], AccurateRip returned [08D69174] (AR v2) Copy OK
Track 15
Filename D:\Music\Feodor Chaliapin\(1991) Prima Voce - Chaliapin - CD1\Feodor Chaliapin - Prima Voce - Chaliapin - CD1 - 15. A Life for the Tsar, Glinka, Susanin's recitative & aria 25 Sept 1923.wav
Peak level 42.1 % Extraction speed 4.9 X Track quality 100.0 % Test CRC E9EA7BE9 Copy CRC E9EA7BE9 Cannot be verified as accurate (confidence 2) [BAB3BFEA], AccurateRip returned [E63AC0E5] (AR v2) Copy OK
Track 16
Filename D:\Music\Feodor Chaliapin\(1991) Prima Voce - Chaliapin - CD1\Feodor Chaliapin - Prima Voce - Chaliapin - CD1 - 16. La Boheme, Puccini, Vecchia zimarra (Coat song) 3 Jan 1924.wav
Peak level 37.1 % Extraction speed 4.8 X Track quality 100.0 % Test CRC 69E4DB05 Copy CRC 69E4DB05 Cannot be verified as accurate (confidence 2) [464B0519], AccurateRip returned [046DE62F] (AR v2) Copy OK
Track 17
Filename D:\Music\Feodor Chaliapin\(1991) Prima Voce - Chaliapin - CD1\Feodor Chaliapin - Prima Voce - Chaliapin - CD1 - 17. Tchaikovsky, Pilgrim's song 3 Jan 1924.wav
Peak level 51.0 % Extraction speed 4.9 X Track quality 100.0 % Test CRC E166BACE Copy CRC E166BACE Cannot be verified as accurate (confidence 2) [4EFD51CB], AccurateRip returned [40D206E8] (AR v2) Copy OK
Track 18
Filename D:\Music\Feodor Chaliapin\(1991) Prima Voce - Chaliapin - CD1\Feodor Chaliapin - Prima Voce - Chaliapin - CD1 - 18. Mefistofele, Boito, Ave Signor 16 March 1927.wav
Peak level 44.1 % Extraction speed 3.3 X Track quality 99.9 % Test CRC DB967CBF Copy CRC DB967CBF Cannot be verified as accurate (confidence 2) [41D088AE], AccurateRip returned [93359A91] (AR v2) Copy OK
Track 19
Filename D:\Music\Feodor Chaliapin\(1991) Prima Voce - Chaliapin - CD1\Feodor Chaliapin - Prima Voce - Chaliapin - CD1 - 19. Mefistofele, Boito, Son lo spirito che nega 31 May 1926.wav
Peak level 98.3 % Extraction speed 5.1 X Track quality 100.0 % Test CRC E3FFBD07 Copy CRC E3FFBD07 Cannot be verified as accurate (confidence 2) [75699D43], AccurateRip returned [B40ABC5E] (AR v2) Copy OK
Track 20
Filename D:\Music\Feodor Chaliapin\(1991) Prima Voce - Chaliapin - CD1\Feodor Chaliapin - Prima Voce - Chaliapin - CD1 - 20. Don Quichotte, Massenet, Death scene with Olive Kline 7 April 1927.wav
Peak level 52.7 % Extraction speed 5.8 X Track quality 100.0 % Test CRC A87B48D6 Copy CRC A87B48D6 Cannot be verified as accurate (confidence 2) [E9985BAA], AccurateRip returned [8DBF5A5B] (AR v2) Copy OK
No tracks could be verified as accurateYou may have a different pressing from the one(s) in the database
No errors occurred
End of status report
==== Log checksum B968B6440EB8B95BC627C207643E31184E64E8F9B2724D853B05251EA97AA07F ====

Feodor Chaliapin - Prima Voce - Chaliapin - CD2.log

Exact Audio Copy V1.0 beta 6 from 9. April 2015
EAC extraction logfile from 12. May 2015, 21:25
Feodor Chaliapin / Prima Voce: Chaliapin - CD2
Used drive : Optiarc DVD RW AD-7200S Adapter: 1 ID: 1
Read mode : SecureUtilize accurate stream : YesDefeat audio cache : YesMake use of C2 pointers : No
Read offset correction : 48Overread into Lead-In and Lead-Out : NoFill up missing offset samples with silence : YesDelete leading and trailing silent blocks : NoNull samples used in CRC calculations : YesUsed interface : Native Win32 interface for Win NT & 2000Gap handling : Appended to previous track
Used output format : User Defined EncoderSelected bitrate : 1024 kBit/sQuality : HighAdd ID3 tag : NoCommand line compressor : C:\program files\Monkey's Audio\wapet.exeAdditional command line options : %dest% -t "Genre=%genre%" -t "Artist=%artist%" -t "Title=%title%" -t "Album=%albumtitle%" -t "Year=%year%" -t "Track=%tracknr%" -t "Comment=%comment%" mac.exe %source% %dest% -c4000
TOC of the extracted CD
Track | Start | Length | Start sector | End sector --------------------------------------------------------- 1 | 0:00.00 | 5:18.00 | 0 | 23849 2 | 5:18.00 | 4:18.00 | 23850 | 43199 3 | 9:36.00 | 12:23.00 | 43200 | 98924 4 | 21:59.00 | 3:49.00 | 98925 | 116099 5 | 25:48.00 | 4:57.00 | 116100 | 138374 6 | 30:45.00 | 2:13.00 | 138375 | 148349 7 | 32:58.00 | 4:57.00 | 148350 | 170624 8 | 37:55.00 | 3:42.00 | 170625 | 187274 9 | 41:37.00 | 5:11.00 | 187275 | 210599 10 | 46:48.00 | 4:02.00 | 210600 | 228749 11 | 50:50.00 | 4:55.00 | 228750 | 250874 12 | 55:45.00 | 3:12.00 | 250875 | 265274 13 | 58:57.00 | 4:27.00 | 265275 | 285299 14 | 63:24.00 | 4:29.00 | 285300 | 305474 15 | 67:53.00 | 3:05.00 | 305475 | 319349 16 | 70:58.00 | 3:07.00 | 319350 | 333374
Track 1
Filename D:\Music\Feodor Chaliapin\(1991) Prima Voce - Chaliapin - CD2\Feodor Chaliapin - Prima Voce - Chaliapin - CD2 - 01. Boris Godunov, Mussorgsky, Boris' monologue 6 June 1931.wav
Pre-gap length 0:00:02.00
Peak level 84.2 % Extraction speed 2.6 X Track quality 100.0 % Test CRC 3954ECA8 Copy CRC 3954ECA8 Cannot be verified as accurate (confidence 2) [DD40F3E1], AccurateRip returned [AD8641D4] (AR v2) Copy OK
Track 2
Filename D:\Music\Feodor Chaliapin\(1991) Prima Voce - Chaliapin - CD2\Feodor Chaliapin - Prima Voce - Chaliapin - CD2 - 02. Boris Godunov, Mussorgsky, Clock scene 6 June 1931.wav
Peak level 75.2 % Extraction speed 2.9 X Track quality 100.0 % Test CRC 0FCD9D01 Copy CRC 0FCD9D01 Cannot be verified as accurate (confidence 2) [A3B01552], AccurateRip returned [B8BD5B18] (AR v2) Copy OK
Track 3
Filename D:\Music\Feodor Chaliapin\(1991) Prima Voce - Chaliapin - CD2\Feodor Chaliapin - Prima Voce - Chaliapin - CD2 - 03. Boris Godunov, Mussorgsky, Farewell, prayer and death with Margherita Carosio 4 July 1928.wav
Peak level 56.6 % Extraction speed 3.5 X Track quality 99.9 % Test CRC D13523FE Copy CRC D13523FE Cannot be verified as accurate (confidence 2) [2AC40501], AccurateRip returned [E233B416] (AR v2) Copy OK
Track 4
Filename D:\Music\Feodor Chaliapin\(1991) Prima Voce - Chaliapin - CD2\Feodor Chaliapin - Prima Voce - Chaliapin - CD2 - 04. Boris Godunov, Mussorgsky, Farewell, prayer and death with Margherita Carosio 4 July 1928.wav
Peak level 63.5 % Extraction speed 3.6 X Track quality 100.0 % Test CRC A97133BF Copy CRC A97133BF Cannot be verified as accurate (confidence 2) [8586A506], AccurateRip returned [9F483ED2] (AR v2) Copy OK
Track 5
Filename D:\Music\Feodor Chaliapin\(1991) Prima Voce - Chaliapin - CD2\Feodor Chaliapin - Prima Voce - Chaliapin - CD2 - 05. Prince Igor, Borodin, Khan Kontchak's aria 20 Oct 1927.wav
Peak level 50.9 % Extraction speed 3.9 X Track quality 100.0 % Test CRC E0E76B1F Copy CRC E0E76B1F Cannot be verified as accurate (confidence 2) [E638AA4B], AccurateRip returned [CF8AF177] (AR v2) Copy OK
Track 6
Filename D:\Music\Feodor Chaliapin\(1991) Prima Voce - Chaliapin - CD2\Feodor Chaliapin - Prima Voce - Chaliapin - CD2 - 06. Folk song (arr. Chaliapin), Down the Petersky 13 June 1929.wav
Peak level 73.8 % Extraction speed 3.5 X Track quality 100.0 % Test CRC AEDCD651 Copy CRC AEDCD651 Cannot be verified as accurate (confidence 2) [92857413], AccurateRip returned [472CA017] (AR v2) Copy OK
Track 7
Filename D:\Music\Feodor Chaliapin\(1991) Prima Voce - Chaliapin - CD2\Feodor Chaliapin - Prima Voce - Chaliapin - CD2 - 07. Aleko, Rakhmaninov, Aleko's cavatina 11 Nov 1929.wav
Peak level 53.1 % Extraction speed 4.2 X Track quality 100.0 % Test CRC 84694346 Copy CRC 84694346 Cannot be verified as accurate (confidence 2) [64C4FA32], AccurateRip returned [4BB9D774] (AR v2) Copy OK
Track 8
Filename D:\Music\Feodor Chaliapin\(1991) Prima Voce - Chaliapin - CD2\Feodor Chaliapin - Prima Voce - Chaliapin - CD2 - 08. Faust, Gounod, Un rat... Le veau d'or with Michael Cozette 27 Feb 1930.wav
Peak level 66.0 % Extraction speed 4.2 X Track quality 100.0 % Test CRC 6567C817 Copy CRC 6567C817 Cannot be verified as accurate (confidence 2) [5D0AF1CF], AccurateRip returned [61196ED5] (AR v2) Copy OK
Track 9
Filename D:\Music\Feodor Chaliapin\(1991) Prima Voce - Chaliapin - CD2\Feodor Chaliapin - Prima Voce - Chaliapin - CD2 - 09. Folk song (arr. Chaliapin), Nochen'ka 12 June 1930.wav
Peak level 57.2 % Extraction speed 4.6 X Track quality 100.0 % Test CRC 852D82E0 Copy CRC 852D82E0 Cannot be verified as accurate (confidence 2) [D0A82CDB], AccurateRip returned [BEF80C8C] (AR v2) Copy OK
Track 10
Filename D:\Music\Feodor Chaliapin\(1991) Prima Voce - Chaliapin - CD2\Feodor Chaliapin - Prima Voce - Chaliapin - CD2 - 10. Rusalka, Dargomyzhsky, The Miller's aria 8 June 1931.wav
Peak level 67.5 % Extraction speed 4.0 X Track quality 99.9 % Test CRC BA405167 Copy CRC BA405167 Cannot be verified as accurate (confidence 2) [2D540482], AccurateRip returned [699ACA7A] (AR v2) Copy OK
Track 11
Filename D:\Music\Feodor Chaliapin\(1991) Prima Voce - Chaliapin - CD2\Feodor Chaliapin - Prima Voce - Chaliapin - CD2 - 11. Rubenstein, Persian love song [sung in Russian] 13 May 1931.wav
Peak level 50.5 % Extraction speed 4.8 X Track quality 100.0 % Test CRC E324FC66 Copy CRC E324FC66 Cannot be verified as accurate (confidence 2) [393D27C9], AccurateRip returned [C57632CD] (AR v2) Copy OK
Track 12
Filename D:\Music\Feodor Chaliapin\(1991) Prima Voce - Chaliapin - CD2\Feodor Chaliapin - Prima Voce - Chaliapin - CD2 - 12. Russlan and Lyudmila, Glinka, Farlaf's rondo 8 June 1931.wav
Peak level 57.2 % Extraction speed 4.7 X Track quality 100.0 % Test CRC 16F791B0 Copy CRC 16F791B0 Cannot be verified as accurate (confidence 2) [338E10E5], AccurateRip returned [4A257EB9] (AR v2) Copy OK
Track 13
Filename D:\Music\Feodor Chaliapin\(1991) Prima Voce - Chaliapin - CD2\Feodor Chaliapin - Prima Voce - Chaliapin - CD2 - 13. Massenet, Elegie 13 May 1931.wav
Peak level 56.8 % Extraction speed 5.1 X Track quality 100.0 % Test CRC BFB3BF59 Copy CRC BFB3BF59 Cannot be verified as accurate (confidence 2) [B8166F16], AccurateRip returned [EDD43D5A] (AR v2) Copy OK
Track 14
Filename D:\Music\Feodor Chaliapin\(1991) Prima Voce - Chaliapin - CD2\Feodor Chaliapin - Prima Voce - Chaliapin - CD2 - 14. Grechaninov, Twofold Litany 1 March 1932.wav
Peak level 42.8 % Extraction speed 5.2 X Track quality 100.0 % Test CRC 21BC40AA Copy CRC 21BC40AA Cannot be verified as accurate (confidence 2) [8B491E9D], AccurateRip returned [2CC3DB0D] (AR v2) Copy OK
Track 15
Filename D:\Music\Feodor Chaliapin\(1991) Prima Voce - Chaliapin - CD2\Feodor Chaliapin - Prima Voce - Chaliapin - CD2 - 15. Ibert, Chanson de la mort de Don Quichotte [music for the film Don Quichotte] 13 March 1933.wav
Peak level 50.7 % Extraction speed 5.0 X Track quality 100.0 % Test CRC A23EEC12 Copy CRC A23EEC12 Cannot be verified as accurate (confidence 2) [EFA5981E], AccurateRip returned [AA56A44E] (AR v2) Copy OK
Track 16
Filename D:\Music\Feodor Chaliapin\(1991) Prima Voce - Chaliapin - CD2\Feodor Chaliapin - Prima Voce - Chaliapin - CD2 - 16. Mussorgsky, The song of the flea 6 Feb 1936.wav
Peak level 65.8 % Extraction speed 5.1 X Track quality 100.0 % Test CRC 2E2D8A87 Copy CRC 2E2D8A87 Cannot be verified as accurate (confidence 2) [CB21B77B], AccurateRip returned [462287DD] (AR v2) Copy OK
No tracks could be verified as accurateYou may have a different pressing from the one(s) in the database
No errors occurred
End of status report
==== Log checksum F5992622D797002759B74A2FED4126A8FC25ADC06A2E5854757E1F3C835C529A ====

Prima Voce - Chaliapin - CD1.cue

REM GENRE OperaREM DATE 1991REM DISCID F1127E14REM COMMENT "ExactAudioCopy v1.0b6"CATALOG 0083603782320PERFORMER "Feodor Chaliapin"TITLE "Prima Voce: Chaliapin - CD1"FILE "Feodor Chaliapin - Prima Voce - Chaliapin - CD1 - 01. Boris Godounov, Mussorgsky, Pimen's narration 26 Nov 1911.wav" WAVE TRACK 01 AUDIO TITLE "Boris Godounov, Mussorgsky, Pimen's narration 26 Nov 1911" PERFORMER "Feodor Chaliapin" INDEX 01 00:00:00FILE "Feodor Chaliapin - Prima Voce - Chaliapin - CD1 - 02. The Demon, Rubinstein, Do not weep, child [sung in Russian] 15 Oct 1911.wav" WAVE TRACK 02 AUDIO TITLE "The Demon, Rubinstein, Do not weep, child [sung in Russian] 15 Oct 1911" PERFORMER "Feodor Chaliapin" INDEX 01 00:00:00FILE "Feodor Chaliapin - Prima Voce - Chaliapin - CD1 - 03. Folk song, Mashenka 30 Sept 1911.wav" WAVE TRACK 03 AUDIO TITLE "Folk song, Mashenka 30 Sept 1911" PERFORMER "Feodor Chaliapin" INDEX 01 00:00:00FILE "Feodor Chaliapin - Prima Voce - Chaliapin - CD1 - 04. Brahms, Sapphische Ode 12 Jan 1914.wav" WAVE TRACK 04 AUDIO TITLE "Brahms, Sapphische Ode 12 Jan 1914" PERFORMER "Feodor Chaliapin" INDEX 01 00:00:00FILE "Feodor Chaliapin - Prima Voce - Chaliapin - CD1 - 05. Mussorgsky, The song of the flea 10 Oct 1921.wav" WAVE TRACK 05 AUDIO TITLE "Mussorgsky, The song of the flea 10 Oct 1921" PERFORMER "Feodor Chaliapin" INDEX 01 00:00:00FILE "Feodor Chaliapin - Prima Voce - Chaliapin - CD1 - 06. Malashkin, Oh, could I in song tell my sorrow [sung in Russian] 11 Oct 1921.wav" WAVE TRACK 06 AUDIO TITLE "Malashkin, Oh, could I in song tell my sorrow [sung in Russian] 11 Oct 1921" PERFORMER "Feodor Chaliapin" INDEX 01 00:00:00FILE "Feodor Chaliapin - Prima Voce - Chaliapin - CD1 - 07. Boris Godounov, Mussorgsky, Varlaam's song 30 Jan 1922.wav" WAVE TRACK 07 AUDIO TITLE "Boris Godounov, Mussorgsky, Varlaam's song 30 Jan 1922" PERFORMER "Feodor Chaliapin" INDEX 01 00:00:00FILE "Feodor Chaliapin - Prima Voce - Chaliapin - CD1 - 08. Don Carlos, Verdi, Dormiro sol (King Philip's aria) 31 Jan 1922.wav" WAVE TRACK 08 AUDIO TITLE "Don Carlos, Verdi, Dormiro sol (King Philip's aria) 31 Jan 1922" PERFORMER "Feodor Chaliapin" INDEX 01 00:00:00FILE "Feodor Chaliapin - Prima Voce - Chaliapin - CD1 - 09. Sadko, Rimsky-Korsakov, The Varangian Merchant's song 9 Oct 1922.wav" WAVE TRACK 09 AUDIO TITLE "Sadko, Rimsky-Korsakov, The Varangian Merchant's song 9 Oct 1922" PERFORMER "Feodor Chaliapin" INDEX 01 00:00:00FILE "Feodor Chaliapin - Prima Voce - Chaliapin - CD1 - 10. Folk song (arr. Chaliapin & Koenemann), The song of the Volga boatmen 9 Oct 1922.wav" WAVE TRACK 10 AUDIO TITLE "Folk song (arr. Chaliapin & Koenemann), The song of the Volga boatmen 9 Oct 1922" PERFORMER "Feodor Chaliapin" INDEX 01 00:00:00FILE "Feodor Chaliapin - Prima Voce - Chaliapin - CD1 - 11. Prince Igor, Borodin, Galitzky's song 22 Nov 1922.wav" WAVE TRACK 11 AUDIO TITLE "Prince Igor, Borodin, Galitzky's song 22 Nov 1922" PERFORMER "Feodor Chaliapin" INDEX 01 00:00:00FILE "Feodor Chaliapin - Prima Voce - Chaliapin - CD1 - 12. Boris Godounov, Mussorgsky, Boris' monologue 26 June 1923.wav" WAVE TRACK 12 AUDIO TITLE "Boris Godounov, Mussorgsky, Boris' monologue 26 June 1923" PERFORMER "Feodor Chaliapin" INDEX 01 00:00:00FILE "Feodor Chaliapin - Prima Voce - Chaliapin - CD1 - 13. Faust, Gounod, Vous qui faites l'endormie (Mephistopheles' serenade) 2 July 1923.wav" WAVE TRACK 13 AUDIO TITLE "Faust, Gounod, Vous qui faites l'endormie (Mephistopheles' serenade) 2 July 1923" PERFORMER "Feodor Chaliapin" INDEX 01 00:00:00FILE "Feodor Chaliapin - Prima Voce - Chaliapin - CD1 - 14. Don Giovanni, Mozart, Madamina (Catalogue aria) 25 Sept 1923.wav" WAVE TRACK 14 AUDIO TITLE "Don Giovanni, Mozart, Madamina (Catalogue aria) 25 Sept 1923" PERFORMER "Feodor Chaliapin" INDEX 01 00:00:00FILE "Feodor Chaliapin - Prima Voce - Chaliapin - CD1 - 15. A Life for the Tsar, Glinka, Susanin's recitative & aria 25 Sept 1923.wav" WAVE TRACK 15 AUDIO TITLE "A Life for the Tsar, Glinka, Susanin's recitative & aria 25 Sept 1923" PERFORMER "Feodor Chaliapin" INDEX 01 00:00:00FILE "Feodor Chaliapin - Prima Voce - Chaliapin - CD1 - 16. La Boheme, Puccini, Vecchia zimarra (Coat song) 3 Jan 1924.wav" WAVE TRACK 16 AUDIO TITLE "La Boheme, Puccini, Vecchia zimarra (Coat song) 3 Jan 1924" PERFORMER "Feodor Chaliapin" INDEX 01 00:00:00FILE "Feodor Chaliapin - Prima Voce - Chaliapin - CD1 - 17. Tchaikovsky, Pilgrim's song 3 Jan 1924.wav" WAVE TRACK 17 AUDIO TITLE "Tchaikovsky, Pilgrim's song 3 Jan 1924" PERFORMER "Feodor Chaliapin" INDEX 01 00:00:00FILE "Feodor Chaliapin - Prima Voce - Chaliapin - CD1 - 18. Mefistofele, Boito, Ave Signor 16 March 1927.wav" WAVE TRACK 18 AUDIO TITLE "Mefistofele, Boito, Ave Signor 16 March 1927" PERFORMER "Feodor Chaliapin" INDEX 01 00:00:00FILE "Feodor Chaliapin - Prima Voce - Chaliapin - CD1 - 19. Mefistofele, Boito, Son lo spirito che nega 31 May 1926.wav" WAVE TRACK 19 AUDIO TITLE "Mefistofele, Boito, Son lo spirito che nega 31 May 1926" PERFORMER "Feodor Chaliapin" INDEX 01 00:00:00FILE "Feodor Chaliapin - Prima Voce - Chaliapin - CD1 - 20. Don Quichotte, Massenet, Death scene with Olive Kline 7 April 1927.wav" WAVE TRACK 20 AUDIO TITLE "Don Quichotte, Massenet, Death scene with Olive Kline 7 April 1927" PERFORMER "Feodor Chaliapin" INDEX 01 00:00:00

Prima Voce - Chaliapin - CD2.cue

REM GENRE OperaREM DATE 1991REM DISCID E4115D10REM COMMENT "ExactAudioCopy v1.0b6"CATALOG 0083603782429PERFORMER "Feodor Chaliapin"TITLE "Prima Voce: Chaliapin - CD2"FILE "Feodor Chaliapin - Prima Voce - Chaliapin - CD2 - 01. Boris Godunov, Mussorgsky, Boris' monologue 6 June 1931.wav" WAVE TRACK 01 AUDIO TITLE "Boris Godunov, Mussorgsky, Boris' monologue 6 June 1931" PERFORMER "Feodor Chaliapin" INDEX 01 00:00:00FILE "Feodor Chaliapin - Prima Voce - Chaliapin - CD2 - 02. Boris Godunov, Mussorgsky, Clock scene 6 June 1931.wav" WAVE TRACK 02 AUDIO TITLE "Boris Godunov, Mussorgsky, Clock scene 6 June 1931" PERFORMER "Feodor Chaliapin" INDEX 01 00:00:00FILE "Feodor Chaliapin - Prima Voce - Chaliapin - CD2 - 03. Boris Godunov, Mussorgsky, Farewell, prayer and death with Margherita Carosio 4 July 1928.wav" WAVE TRACK 03 AUDIO TITLE "Boris Godunov, Mussorgsky, Farewell, prayer and death with Margherita Carosio..." PERFORMER "Feodor Chaliapin" INDEX 01 00:00:00FILE "Feodor Chaliapin - Prima Voce - Chaliapin - CD2 - 04. Boris Godunov, Mussorgsky, Farewell, prayer and death with Margherita Carosio 4 July 1928.wav" WAVE TRACK 04 AUDIO TITLE "Boris Godunov, Mussorgsky, Farewell, prayer and death with Margherita Carosio..." PERFORMER "Feodor Chaliapin" INDEX 01 00:00:00FILE "Feodor Chaliapin - Prima Voce - Chaliapin - CD2 - 05. Prince Igor, Borodin, Khan Kontchak's aria 20 Oct 1927.wav" WAVE TRACK 05 AUDIO TITLE "Prince Igor, Borodin, Khan Kontchak's aria 20 Oct 1927" PERFORMER "Feodor Chaliapin" INDEX 01 00:00:00FILE "Feodor Chaliapin - Prima Voce - Chaliapin - CD2 - 06. Folk song (arr. Chaliapin), Down the Petersky 13 June 1929.wav" WAVE TRACK 06 AUDIO TITLE "Folk song (arr. Chaliapin), Down the Petersky 13 June 1929" PERFORMER "Feodor Chaliapin" INDEX 01 00:00:00FILE "Feodor Chaliapin - Prima Voce - Chaliapin - CD2 - 07. Aleko, Rakhmaninov, Aleko's cavatina 11 Nov 1929.wav" WAVE TRACK 07 AUDIO TITLE "Aleko, Rakhmaninov, Aleko's cavatina 11 Nov 1929" PERFORMER "Feodor Chaliapin" INDEX 01 00:00:00FILE "Feodor Chaliapin - Prima Voce - Chaliapin - CD2 - 08. Faust, Gounod, Un rat... Le veau d'or with Michael Cozette 27 Feb 1930.wav" WAVE TRACK 08 AUDIO TITLE "Faust, Gounod, Un rat... Le veau d'or with Michael Cozette 27 Feb 1930" PERFORMER "Feodor Chaliapin" INDEX 01 00:00:00FILE "Feodor Chaliapin - Prima Voce - Chaliapin - CD2 - 09. Folk song (arr. Chaliapin), Nochen'ka 12 June 1930.wav" WAVE TRACK 09 AUDIO TITLE "Folk song (arr. Chaliapin), Nochen'ka 12 June 1930" PERFORMER "Feodor Chaliapin" INDEX 01 00:00:00FILE "Feodor Chaliapin - Prima Voce - Chaliapin - CD2 - 10. Rusalka, Dargomyzhsky, The Miller's aria 8 June 1931.wav" WAVE TRACK 10 AUDIO TITLE "Rusalka, Dargomyzhsky, The Miller's aria 8 June 1931" PERFORMER "Feodor Chaliapin" INDEX 01 00:00:00FILE "Feodor Chaliapin - Prima Voce - Chaliapin - CD2 - 11. Rubenstein, Persian love song [sung in Russian] 13 May 1931.wav" WAVE TRACK 11 AUDIO TITLE "Rubenstein, Persian love song [sung in Russian] 13 May 1931" PERFORMER "Feodor Chaliapin" INDEX 01 00:00:00FILE "Feodor Chaliapin - Prima Voce - Chaliapin - CD2 - 12. Russlan and Lyudmila, Glinka, Farlaf's rondo 8 June 1931.wav" WAVE TRACK 12 AUDIO TITLE "Russlan and Lyudmila, Glinka, Farlaf's rondo 8 June 1931" PERFORMER "Feodor Chaliapin" INDEX 01 00:00:00FILE "Feodor Chaliapin - Prima Voce - Chaliapin - CD2 - 13. Massenet, Elegie 13 May 1931.wav" WAVE TRACK 13 AUDIO TITLE "Massenet, Elegie 13 May 1931" PERFORMER "Feodor Chaliapin" INDEX 01 00:00:00FILE "Feodor Chaliapin - Prima Voce - Chaliapin - CD2 - 14. Grechaninov, Twofold Litany 1 March 1932.wav" WAVE TRACK 14 AUDIO TITLE "Grechaninov, Twofold Litany 1 March 1932" PERFORMER "Feodor Chaliapin" INDEX 01 00:00:00FILE "Feodor Chaliapin - Prima Voce - Chaliapin - CD2 - 15. Ibert, Chanson de la mort de Don Quichotte [music for the film Don Quichotte] 13 March 1933.wav" WAVE TRACK 15 AUDIO TITLE "Ibert, Chanson de la mort de Don Quichotte [music for the film Don Quichotte]..." PERFORMER "Feodor Chaliapin" INDEX 01 00:00:00FILE "Feodor Chaliapin - Prima Voce - Chaliapin - CD2 - 16. Mussorgsky, The song of the flea 6 Feb 1936.wav" WAVE TRACK 16 AUDIO TITLE "Mussorgsky, The song of the flea 6 Feb 1936" PERFORMER "Feodor Chaliapin" INDEX 01 00:00:00



Показать сообщения:    

Текущее время: 03-Дек 22:41

Часовой пояс: UTC + 3


Вы не можете начинать темы
Вы не можете отвечать на сообщения
Вы не можете редактировать свои сообщения
Вы не можете удалять свои сообщения
Вы не можете голосовать в опросах
Вы не можете прикреплять файлы к сообщениям
Вы не можете скачивать файлы