(Classical) Orlando di Lasso · Lassus (The Hilliard Ensemble) · 1998, FLAC (tracks+.cue) lossless


 

[Цитировать]

Orlando di Lasso
L a s s u s

Жанр: classical
Страна-производитель диска: Germany
Год издания диска: 1998
Издатель: ECM New Series
Номер по каталогу: 1658
Дата записи: 1993
Аудиокодек: FLAC
Тип рипа: tracks+.cue
Битрейт аудио: lossless
Продолжительность: 01:03:15
Источник: скачано с what.cd
Наличие сканов в содержимом раздачи: нет
Исполнители: The Hilliard Ensemble

Треклист

Missa Pro Defunctis
01. Resposurium: Memento Mei Deus (1:48)
02. Introitus (6:12)
03. Kyrie (3:19)
04. Graduale (5:02)
05. Offertorium (5:37)
06. Sanctus And Benedictus (4:32)
07. Agnus Dei (3:04)
08. Communio (3:24)
09. Antiphona: In Paradisum (1:26)
Prophetiae Sibyllarum
10. Carmina Chromatico (1:36)
11. Sybilla Persica (2:32)
12. Sybilla Libyca (2:41)
13. Sybilla Delphica (2:16)
14. Sybilla Cimmeria (2:17)
15. Sybilla Samia (1:55)
16. Sybilla Cumana (2:16)
17. Sybilla Hellespontiaca (2:07)
18. Sybilla Phrygia (1:55)
19. Sybilla Europaea (2:15)
20. Sybilla Tiburtina (2:12)
21. Sybilla Erythraea (2:26)
22. Sybilla Agrippa (2:25)

Лог создания рипа

Exact Audio Copy V1.0 beta 1 from 15. November 2010
EAC extraction logfile from 8. June 2011, 19:58
Orlando di Lasso / Lassus (Hilliard Ensemble)
Used drive : TSSTcorpCD/DVDW SH-S182D Adapter: 1 ID: 0
Read mode : SecureUtilize accurate stream : YesDefeat audio cache : YesMake use of C2 pointers : No
Read offset correction : 6Overread into Lead-In and Lead-Out : NoFill up missing offset samples with silence : YesDelete leading and trailing silent blocks : NoNull samples used in CRC calculations : YesUsed interface : Native Win32 interface for Win NT & 2000Gap handling : Appended to previous track
Used output format : User Defined EncoderSelected bitrate : 128 kBit/sQuality : HighAdd ID3 tag : NoCommand line compressor : C:\Program Files\Exact Audio Copy\Flac\flac.exeAdditional command line options : -V -8 -T "artist=%a" -T "title=%t" -T "album=%g" -T "date=%y" -T "tracknumber=%n" -T "genre=%m" %s
TOC of the extracted CD
Track | Start | Length | Start sector | End sector --------------------------------------------------------- 1 | 0:00.00 | 1:48.20 | 0 | 8119 2 | 1:48.20 | 6:12.25 | 8120 | 36044 3 | 8:00.45 | 3:19.07 | 36045 | 50976 4 | 11:19.52 | 5:02.00 | 50977 | 73626 5 | 16:21.52 | 5:36.45 | 73627 | 98871 6 | 21:58.22 | 4:31.55 | 98872 | 119251 7 | 26:30.02 | 3:04.25 | 119252 | 133076 8 | 29:34.27 | 3:23.48 | 133077 | 148349 9 | 32:58.00 | 1:25.65 | 148350 | 154789 10 | 34:23.65 | 1:35.45 | 154790 | 161959 11 | 35:59.35 | 2:32.15 | 161960 | 173374 12 | 38:31.50 | 2:41.05 | 173375 | 185454 13 | 41:12.55 | 2:15.47 | 185455 | 195626 14 | 43:28.27 | 2:16.60 | 195627 | 205886 15 | 45:45.12 | 1:54.38 | 205887 | 214474 16 | 47:39.50 | 2:15.70 | 214475 | 224669 17 | 49:55.45 | 2:07.35 | 224670 | 234229 18 | 52:03.05 | 1:54.60 | 234230 | 242839 19 | 53:57.65 | 2:14.60 | 242840 | 252949 20 | 56:12.50 | 2:11.45 | 252950 | 262819 21 | 58:24.20 | 2:25.57 | 262820 | 273751 22 | 60:50.02 | 2:25.00 | 273752 | 284626
Track 1
Filename D:\EAC Rips\Orlando di Lasso - 1993 - Lassus (Hilliard Ensemble)\01 - Missa Pro defunctis 1 Responsorium- Memento mei Deus.wav
Pre-gap length 0:00:02.00
Peak level 27.1 % Extraction speed 2.9 X Track quality 99.9 % Test CRC 67CB9F09 Copy CRC 67CB9F09 Accurately ripped (confidence 5) [FB2B9325] Copy OK
Track 2
Filename D:\EAC Rips\Orlando di Lasso - 1993 - Lassus (Hilliard Ensemble)\02 - Missa Pro defunctis 2 Introitus.wav
Peak level 61.7 % Extraction speed 5.0 X Track quality 100.0 % Test CRC 7B1277E0 Copy CRC 7B1277E0 Accurately ripped (confidence 5) [D3B12E0D] Copy OK
Track 3
Filename D:\EAC Rips\Orlando di Lasso - 1993 - Lassus (Hilliard Ensemble)\03 - Missa Pro defunctis 3 Kyrie.wav
Peak level 58.0 % Extraction speed 5.1 X Track quality 100.0 % Test CRC 788574E9 Copy CRC 788574E9 Accurately ripped (confidence 5) [4BC7D928] Copy OK
Track 4
Filename D:\EAC Rips\Orlando di Lasso - 1993 - Lassus (Hilliard Ensemble)\04 - Missa Pro defunctis 4 Graduale.wav
Peak level 51.6 % Extraction speed 5.8 X Track quality 100.0 % Test CRC 451332AF Copy CRC 451332AF Accurately ripped (confidence 5) [1B95C063] Copy OK
Track 5
Filename D:\EAC Rips\Orlando di Lasso - 1993 - Lassus (Hilliard Ensemble)\05 - Missa Pro defunctis 5 Offertorium.wav
Peak level 80.3 % Extraction speed 6.3 X Track quality 100.0 % Test CRC 809B1AF2 Copy CRC 809B1AF2 Accurately ripped (confidence 5) [1E9DC60D] Copy OK
Track 6
Filename D:\EAC Rips\Orlando di Lasso - 1993 - Lassus (Hilliard Ensemble)\06 - Missa Pro defunctis 6 Agnus Dei.wav
Peak level 77.4 % Extraction speed 6.6 X Track quality 100.0 % Test CRC 28BC30DB Copy CRC 28BC30DB Accurately ripped (confidence 5) [5694EADD] Copy OK
Track 7
Filename D:\EAC Rips\Orlando di Lasso - 1993 - Lassus (Hilliard Ensemble)\07 - Missa Pro defunctis 7 Sanctus & Benedictus.wav
Peak level 34.0 % Extraction speed 6.5 X Track quality 100.0 % Test CRC 3A25575B Copy CRC 3A25575B Accurately ripped (confidence 5) [8EAE7C25] Copy OK
Track 8
Filename D:\EAC Rips\Orlando di Lasso - 1993 - Lassus (Hilliard Ensemble)\08 - Missa Pro defunctis 8 Communio.wav
Peak level 77.4 % Extraction speed 6.8 X Track quality 100.0 % Test CRC F32237E7 Copy CRC F32237E7 Accurately ripped (confidence 5) [9E443309] Copy OK
Track 9
Filename D:\EAC Rips\Orlando di Lasso - 1993 - Lassus (Hilliard Ensemble)\09 - Missa Pro defunctis 9 Antiphona- In paradisum.wav
Peak level 46.8 % Extraction speed 5.7 X Track quality 100.0 % Test CRC BE96DBA5 Copy CRC BE96DBA5 Accurately ripped (confidence 5) [4902409B] Copy OK
Track 10
Filename D:\EAC Rips\Orlando di Lasso - 1993 - Lassus (Hilliard Ensemble)\10 - Prophetiae Sibyllarum 1 Carmina Chromatico.wav
Peak level 60.0 % Extraction speed 5.9 X Track quality 100.0 % Test CRC AB56E71C Copy CRC AB56E71C Accurately ripped (confidence 5) [C58B10B8] Copy OK
Track 11
Filename D:\EAC Rips\Orlando di Lasso - 1993 - Lassus (Hilliard Ensemble)\11 - Prophetiae Sibyllarum 2 Sybilla Persica.wav
Peak level 87.2 % Extraction speed 6.8 X Track quality 100.0 % Test CRC 6CFBCAC7 Copy CRC 6CFBCAC7 Accurately ripped (confidence 5) [F090C26F] Copy OK
Track 12
Filename D:\EAC Rips\Orlando di Lasso - 1993 - Lassus (Hilliard Ensemble)\12 - Prophetiae Sibyllarum 3 Sybilla Libyca.wav
Peak level 96.0 % Extraction speed 6.9 X Track quality 100.0 % Test CRC BB832E56 Copy CRC BB832E56 Accurately ripped (confidence 5) [8985340D] Copy OK
Track 13
Filename D:\EAC Rips\Orlando di Lasso - 1993 - Lassus (Hilliard Ensemble)\13 - Prophetiae Sibyllarum 4 Sybilla Delphica.wav
Peak level 48.3 % Extraction speed 6.8 X Track quality 100.0 % Test CRC 366EBA05 Copy CRC 366EBA05 Accurately ripped (confidence 5) [991D136C] Copy OK
Track 14
Filename D:\EAC Rips\Orlando di Lasso - 1993 - Lassus (Hilliard Ensemble)\14 - Prophetiae Sibyllarum 5 Sybilla Cimmeria.wav
Peak level 43.4 % Extraction speed 5.8 X Track quality 99.9 % Test CRC A21D7125 Copy CRC A21D7125 Accurately ripped (confidence 5) [3C2E6A3E] Copy OK
Track 15
Filename D:\EAC Rips\Orlando di Lasso - 1993 - Lassus (Hilliard Ensemble)\15 - Prophetiae Sibyllarum 6 Sybilla Samia.wav
Peak level 92.4 % Extraction speed 6.8 X Track quality 100.0 % Test CRC 8BFD222B Copy CRC 8BFD222B Accurately ripped (confidence 5) [A8605532] Copy OK
Track 16
Filename D:\EAC Rips\Orlando di Lasso - 1993 - Lassus (Hilliard Ensemble)\16 - Prophetiae Sibyllarum 7 Sybilla Cumana.wav
Peak level 44.5 % Extraction speed 7.3 X Track quality 100.0 % Test CRC 213D668F Copy CRC 213D668F Accurately ripped (confidence 5) [CBC26585] Copy OK
Track 17
Filename D:\EAC Rips\Orlando di Lasso - 1993 - Lassus (Hilliard Ensemble)\17 - Prophetiae Sibyllarum 8 Sybilla Hellespontiaca.wav
Peak level 46.0 % Extraction speed 7.2 X Track quality 100.0 % Test CRC 34377908 Copy CRC 34377908 Accurately ripped (confidence 5) [5FDF8B2A] Copy OK
Track 18
Filename D:\EAC Rips\Orlando di Lasso - 1993 - Lassus (Hilliard Ensemble)\18 - Prophetiae Sibyllarum 9 Sybilla Phrygia.wav
Peak level 79.5 % Extraction speed 7.1 X Track quality 100.0 % Test CRC 25F33BD5 Copy CRC 25F33BD5 Accurately ripped (confidence 5) [200B30A5] Copy OK
Track 19
Filename D:\EAC Rips\Orlando di Lasso - 1993 - Lassus (Hilliard Ensemble)\19 - Prophetiae Sibyllarum 10 Sybilla Europaea.wav
Peak level 34.0 % Extraction speed 6.2 X Track quality 99.9 % Test CRC 26DE46D5 Copy CRC 26DE46D5 Accurately ripped (confidence 5) [9C094FDC] Copy OK
Track 20
Filename D:\EAC Rips\Orlando di Lasso - 1993 - Lassus (Hilliard Ensemble)\20 - Prophetiae Sibyllarum 11 Sybilla Tiburtina.wav
Peak level 34.1 % Extraction speed 7.7 X Track quality 100.0 % Test CRC 8849D5AF Copy CRC 8849D5AF Accurately ripped (confidence 5) [42110932] Copy OK
Track 21
Filename D:\EAC Rips\Orlando di Lasso - 1993 - Lassus (Hilliard Ensemble)\21 - Prophetiae Sibyllarum 12 Sybilla Erythraea.wav
Peak level 58.4 % Extraction speed 6.6 X Track quality 99.9 % Test CRC 46E572EC Copy CRC 46E572EC Accurately ripped (confidence 5) [4D251422] Copy OK
Track 22
Filename D:\EAC Rips\Orlando di Lasso - 1993 - Lassus (Hilliard Ensemble)\22 - Prophetiae Sibyllarum 13 Sybilla Agrippa.wav
Peak level 85.7 % Extraction speed 8.0 X Track quality 100.0 % Test CRC 9203191A Copy CRC 9203191A Accurately ripped (confidence 5) [5952D1AF] Copy OK
All tracks accurately ripped
No errors occurred
End of status report
==== Log checksum D6BE02B3084625BFE620736ECA1D0F61747A679F47AB93A89CE38CD2ADA541F8 ====

Содержание индексной карты (.CUE)

REM DATE 1998REM DISCID 390ED316REM COMMENT "ExactAudioCopy v1.0b1"PERFORMER "The Hilliard Ensemble"TITLE "Lassus"FILE "01. Resposurium. Memento Mei Deus.wav" WAVE TRACK 01 AUDIO TITLE "Resposurium: Memento Mei Deus" PERFORMER "The Hilliard Ensemble" INDEX 01 00:00:00FILE "02. Introitus.wav" WAVE TRACK 02 AUDIO TITLE "Introitus" PERFORMER "The Hilliard Ensemble" INDEX 01 00:00:00FILE "03. Kyrie.wav" WAVE TRACK 03 AUDIO TITLE "Kyrie" PERFORMER "The Hilliard Ensemble" INDEX 01 00:00:00FILE "04. Graduale.wav" WAVE TRACK 04 AUDIO TITLE "Graduale" PERFORMER "The Hilliard Ensemble" INDEX 01 00:00:00FILE "05. Offertorium.wav" WAVE TRACK 05 AUDIO TITLE "Offertorium" PERFORMER "The Hilliard Ensemble" INDEX 01 00:00:00FILE "06. Sanctus And Benedictus.wav" WAVE TRACK 06 AUDIO TITLE "Sanctus And Benedictus" PERFORMER "The Hilliard Ensemble" INDEX 01 00:00:00FILE "07. Agnus Dei.wav" WAVE TRACK 07 AUDIO TITLE "Agnus Dei" PERFORMER "The Hilliard Ensemble" INDEX 01 00:00:00FILE "08. Communio.wav" WAVE TRACK 08 AUDIO TITLE "Communio" PERFORMER "The Hilliard Ensemble" INDEX 01 00:00:00FILE "09. Antiphona. In Paradisum.wav" WAVE TRACK 09 AUDIO TITLE "Antiphona: In Paradisum" PERFORMER "The Hilliard Ensemble" INDEX 01 00:00:00FILE "10. Carmina Chromatico.wav" WAVE TRACK 10 AUDIO TITLE "Carmina Chromatico" PERFORMER "The Hilliard Ensemble" INDEX 01 00:00:00FILE "11. Sybilla Persica.wav" WAVE TRACK 11 AUDIO TITLE "Sybilla Persica" PERFORMER "The Hilliard Ensemble" INDEX 01 00:00:00FILE "12. Sybilla Libyca.wav" WAVE TRACK 12 AUDIO TITLE "Sybilla Libyca" PERFORMER "The Hilliard Ensemble" INDEX 01 00:00:00FILE "13. Sybilla Delphica.wav" WAVE TRACK 13 AUDIO TITLE "Sybilla Delphica" PERFORMER "The Hilliard Ensemble" INDEX 01 00:00:00FILE "14. Sybilla Cimmeria.wav" WAVE TRACK 14 AUDIO TITLE "Sybilla Cimmeria" PERFORMER "The Hilliard Ensemble" INDEX 01 00:00:00FILE "15. Sybilla Samia.wav" WAVE TRACK 15 AUDIO TITLE "Sybilla Samia" PERFORMER "The Hilliard Ensemble" INDEX 01 00:00:00FILE "16. Sybilla Cumana.wav" WAVE TRACK 16 AUDIO TITLE "Sybilla Cumana" PERFORMER "The Hilliard Ensemble" INDEX 01 00:00:00FILE "17. Sybilla Hellespontiaca.wav" WAVE TRACK 17 AUDIO TITLE "Sybilla Hellespontiaca" PERFORMER "The Hilliard Ensemble" INDEX 01 00:00:00FILE "18. Sybilla Phrygia.wav" WAVE TRACK 18 AUDIO TITLE "Sybilla Phrygia" PERFORMER "The Hilliard Ensemble" INDEX 01 00:00:00FILE "19. Sybilla Europaea.wav" WAVE TRACK 19 AUDIO TITLE "Sybilla Europaea" PERFORMER "The Hilliard Ensemble" INDEX 01 00:00:00FILE "20. Sybilla Tiburtina.wav" WAVE TRACK 20 AUDIO TITLE "Sybilla Tiburtina" PERFORMER "The Hilliard Ensemble" INDEX 01 00:00:00FILE "21. Sybilla Erythraea.wav" WAVE TRACK 21 AUDIO TITLE "Sybilla Erythraea" PERFORMER "The Hilliard Ensemble" INDEX 01 00:00:00FILE "22. Sybilla Agrippa.wav" WAVE TRACK 22 AUDIO TITLE "Sybilla Agrippa" PERFORMER "The Hilliard Ensemble" INDEX 01 00:00:00



Показать сообщения:    

Текущее время: 08-Дек 09:04

Часовой пояс: UTC + 3


Вы не можете начинать темы
Вы не можете отвечать на сообщения
Вы не можете редактировать свои сообщения
Вы не можете удалять свои сообщения
Вы не можете голосовать в опросах
Вы не можете прикреплять файлы к сообщениям
Вы не можете скачивать файлы