(Classical) Scarlatti and the Neapolitan Song - Sonatas and Canzonas - Letizia Calandra, Francesco Cera - 2013, FLAC (image+.cue) lossless


 

[Цитировать]

Scarlatti and the Neapolitan Song - Sonatas and Canzonas - Letizia Calandra, Francesco Cera
Жанр: Classical
Год издания диска: 2013
Издатель (лейбл): Brilliant Classics
Номер по каталогу: 94488
Дата записи: 2009
Аудиокодек: FLAC
Тип рипа: image+.cue
Битрейт аудио: lossless
Продолжительность: 56:42
Источник: собственный рип
Наличие сканов в содержимом раздачи: да
Треклист:
Domenico Scarlatti (1685-1759)
[1] Sonata in G major, K103
Anonymous
[2] Lo guarracino *
Domenico Scarlatti
[3] Sonata in D major, K214
Leonardo Vinci (1696-1730)
[4] So li sorbe e li nespole amare
Domenico Scarlatti
[5] Sonata in D minor, K9
Giovanni Battista Pergolesi (1710-1736)
[6] Chi disse ca la femmena
Domenico Scarlatti
[7] Sonata in D minor, K176
Anonymous
[8] Michelemma
Domenico Scarlatti
[9] Sonata in G major, K153
Anonymous
[10] La nova gelosia
Domenico Scarlatti
[11] Sonata in C minor, K174
[12] Sonata in G major, K241
Sant' Alfonso de Liguori (1696-1787)
[13] Quanno nascette ninno
Domenico Scarlatti
[14] Sonata Pastorale in C major, K513
Anonymous
[15] Facimmo mo l'amore - No quarto d'ora
Domenico Scarlatti
[16] Sonata in B flat major, K202
Исполнители:
Letizia Calandra soprano
Francesco Cera harpsichord
* Michele Pasotti baroque guitar

Лог создания рипа

Exact Audio Copy V1.0 beta 3 from 29. August 2011
EAC extraction logfile from 24. April 2015, 1:36
Letizia Calandra, Francesco Cera / Scarlatti & the Neapolitan Song
Used drive : HL-DT-STDVDRAM GU70N Adapter: 0 ID: 0
Read mode : SecureUtilize accurate stream : YesDefeat audio cache : YesMake use of C2 pointers : No
Read offset correction : 48Overread into Lead-In and Lead-Out : NoFill up missing offset samples with silence : YesDelete leading and trailing silent blocks : NoNull samples used in CRC calculations : YesUsed interface : Native Win32 interface for Win NT & 2000
Used output format : User Defined EncoderSelected bitrate : 128 kBit/sQuality : HighAdd ID3 tag : NoCommand line compressor : C:\Program Files (x86)\Exact Audio Copy\Flac\flac.exeAdditional command line options : -V -8 -T "Date=%year%" -T "Genre=%genre%" %source%
TOC of the extracted CD
Track | Start | Length | Start sector | End sector --------------------------------------------------------- 1 | 0:00.00 | 3:13.45 | 0 | 14519 2 | 3:13.45 | 5:41.11 | 14520 | 40105 3 | 8:54.56 | 3:55.04 | 40106 | 57734 4 | 12:49.60 | 2:31.09 | 57735 | 69068 5 | 15:20.69 | 4:20.60 | 69069 | 88628 6 | 19:41.54 | 2:50.48 | 88629 | 101426 7 | 22:32.27 | 3:46.13 | 101427 | 118389 8 | 26:18.40 | 2:10.65 | 118390 | 128204 9 | 28:29.30 | 1:42.18 | 128205 | 135872 10 | 30:11.48 | 2:38.31 | 135873 | 147753 11 | 32:50.04 | 5:42.59 | 147754 | 173462 12 | 38:32.63 | 2:45.18 | 173463 | 185855 13 | 41:18.06 | 4:49.34 | 185856 | 207564 14 | 46:07.40 | 4:03.20 | 207565 | 225809 15 | 50:10.60 | 2:27.24 | 225810 | 236858 16 | 52:38.09 | 4:04.39 | 236859 | 255197
Range status and errors
Selected range
Filename C:\temp\Scarlatti & the Neapolitan Song\Scarlatti & the Neapolitan Song.wav
Peak level 99.1 % Extraction speed 2.0 X Range quality 99.9 % Test CRC 63219362 Copy CRC 63219362 Copy OK
No errors occurred
AccurateRip summary
Track 1 accurately ripped (confidence 3) [B7ED0AF6] (AR v2)Track 2 accurately ripped (confidence 3) [ADD56DC9] (AR v2)Track 3 accurately ripped (confidence 3) [8C1DAD61] (AR v2)Track 4 accurately ripped (confidence 3) [5780C863] (AR v2)Track 5 accurately ripped (confidence 3) [BAA68C46] (AR v2)Track 6 accurately ripped (confidence 3) [CB7DC00D] (AR v2)Track 7 accurately ripped (confidence 3) [97F10701] (AR v2)Track 8 accurately ripped (confidence 3) [6BA589D1] (AR v2)Track 9 accurately ripped (confidence 3) [A82CC016] (AR v2)Track 10 accurately ripped (confidence 3) [C3010664] (AR v2)Track 11 accurately ripped (confidence 3) [B7F1DA37] (AR v2)Track 12 accurately ripped (confidence 3) [1A4C8C92] (AR v2)Track 13 accurately ripped (confidence 3) [54D4B899] (AR v2)Track 14 accurately ripped (confidence 3) [D464089C] (AR v2)Track 15 accurately ripped (confidence 3) [BAC27D87] (AR v2)Track 16 accurately ripped (confidence 3) [9AEBD169] (AR v2)
All tracks accurately ripped
End of status report
==== Log checksum 2A9B76C49D63D9642EFCC8EED5D4748DD0D62AD07B007A28631B88B7CE81DB2D ====



Показать сообщения:    

Текущее время: 10-Дек 04:12

Часовой пояс: UTC + 3


Вы не можете начинать темы
Вы не можете отвечать на сообщения
Вы не можете редактировать свои сообщения
Вы не можете удалять свои сообщения
Вы не можете голосовать в опросах
Вы не можете прикреплять файлы к сообщениям
Вы не можете скачивать файлы