(Classical) Benjamin Britten - Who are these Children?; Winter Words; Four Burns Songs - Daniel Norman, Christopher Gould - 2008, FLAC (image+.cue) lossless


 

[Цитировать]

Benjamin Britten - Who are these Children?; Winter Words; Four Burns Songs - Daniel Norman, Christopher Gould
Жанр: Classical
Страна-производитель диска: Sweden
Год издания диска: 2008
Издатель (лейбл): BIS
Номер по каталогу: BIS-CD-1510
Дата записи: 2005
Аудиокодек: FLAC
Тип рипа: image+.cue
Битрейт аудио: lossless
Продолжительность: 68:11
Источник: собственный рип
Наличие сканов в содержимом раздачи: да
Треклист:
Benjamin Britten (1913–76)
[1]-[8] Winter Words, Op. 52 (1953)
Lyrics and ballads of Thomas Hardy
[9]-[12] Four Burns Songs (1975)
[13]-[24] Who are these Children? Op. 84 (1969)
Lyrics, rhymes and riddles by William Soutar
[25] If it’s ever Spring again
Text: Thomas Hardy
[26] Dawtie’s Devotion
Text: William Soutar
[27] The Gully
Text: William Soutar
[28] The Children and Sir Nameless
Text: Thomas Hardy
[29] Tradition
Text: William Soutar
[30] Ca’ the yowes (from Folk Song Arrangements, Vol. 5)
Text: Robert Burns
Исполнители:
Daniel Norman tenor
Christopher Gould piano

Лог создания рипа

Exact Audio Copy V1.0 beta 3 from 29. August 2011
EAC extraction logfile from 17. April 2015, 17:34
Daniel Norman, Christopher Gould / Britten - Songs
Used drive : HL-DT-STDVDRAM GU70N Adapter: 0 ID: 0
Read mode : SecureUtilize accurate stream : YesDefeat audio cache : YesMake use of C2 pointers : No
Read offset correction : 48Overread into Lead-In and Lead-Out : NoFill up missing offset samples with silence : YesDelete leading and trailing silent blocks : NoNull samples used in CRC calculations : YesUsed interface : Native Win32 interface for Win NT & 2000
Used output format : User Defined EncoderSelected bitrate : 128 kBit/sQuality : HighAdd ID3 tag : NoCommand line compressor : C:\Program Files (x86)\Exact Audio Copy\Flac\flac.exeAdditional command line options : -V -8 -T "Date=%year%" -T "Genre=%genre%" %source%
TOC of the extracted CD
Track | Start | Length | Start sector | End sector --------------------------------------------------------- 1 | 0:00.00 | 1:38.66 | 0 | 7415 2 | 1:38.66 | 5:16.49 | 7416 | 31164 3 | 6:55.40 | 2:11.60 | 31165 | 41049 4 | 9:07.25 | 1:30.41 | 41050 | 47840 5 | 10:37.66 | 4:10.69 | 47841 | 66659 6 | 14:48.60 | 1:19.57 | 66660 | 72641 7 | 16:08.42 | 3:05.46 | 72642 | 86562 8 | 19:14.13 | 3:43.37 | 86563 | 103324 9 | 22:57.50 | 2:34.45 | 103325 | 114919 10 | 25:32.20 | 0:52.01 | 114920 | 118820 11 | 26:24.21 | 3:17.73 | 118821 | 133668 12 | 29:42.19 | 2:08.13 | 133669 | 143281 13 | 31:50.32 | 1:24.55 | 143282 | 149636 14 | 33:15.12 | 1:15.53 | 149637 | 155314 15 | 34:30.65 | 2:47.74 | 155315 | 167913 16 | 37:18.64 | 0:41.64 | 167914 | 171052 17 | 38:00.53 | 1:27.55 | 171053 | 177632 18 | 39:28.33 | 1:51.25 | 177633 | 185982 19 | 41:19.58 | 0:59.23 | 185983 | 190430 20 | 42:19.06 | 0:41.39 | 190431 | 193544 21 | 43:00.45 | 2:29.46 | 193545 | 204765 22 | 45:30.16 | 1:35.35 | 204766 | 211925 23 | 47:05.51 | 5:27.31 | 211926 | 236481 24 | 52:33.07 | 2:11.14 | 236482 | 246320 25 | 54:44.21 | 2:44.19 | 246321 | 258639 26 | 57:28.40 | 1:20.47 | 258640 | 264686 27 | 58:49.12 | 0:57.04 | 264687 | 268965 28 | 59:46.16 | 2:45.08 | 268966 | 281348 29 | 62:31.24 | 0:57.40 | 281349 | 285663 30 | 63:28.64 | 4:42.20 | 285664 | 306833
Range status and errors
Selected range
Filename C:\temp\BIS-CD-1510 - Britten - Songs - Norman, Gould\Britten - Songs.wav
Peak level 100.0 % Extraction speed 2.3 X Range quality 100.0 % Test CRC E1C5D49C Copy CRC E1C5D49C Copy OK
No errors occurred
AccurateRip summary
Track 1 not present in databaseTrack 2 not present in databaseTrack 3 not present in databaseTrack 4 not present in databaseTrack 5 not present in databaseTrack 6 not present in databaseTrack 7 not present in databaseTrack 8 not present in databaseTrack 9 not present in databaseTrack 10 not present in databaseTrack 11 not present in databaseTrack 12 not present in databaseTrack 13 not present in databaseTrack 14 not present in databaseTrack 15 not present in databaseTrack 16 not present in databaseTrack 17 not present in databaseTrack 18 not present in databaseTrack 19 not present in databaseTrack 20 not present in databaseTrack 21 not present in databaseTrack 22 not present in databaseTrack 23 not present in databaseTrack 24 not present in databaseTrack 25 not present in databaseTrack 26 not present in databaseTrack 27 not present in databaseTrack 28 not present in databaseTrack 29 not present in databaseTrack 30 not present in database
None of the tracks are present in the AccurateRip database
End of status report
==== Log checksum 89783611B5A0E6F733A040F8775BB48C1A7C57E0C485732036989B8EC237FBAB ====



Показать сообщения:    

Текущее время: 03-Дек 05:25

Часовой пояс: UTC + 3


Вы не можете начинать темы
Вы не можете отвечать на сообщения
Вы не можете редактировать свои сообщения
Вы не можете удалять свои сообщения
Вы не можете голосовать в опросах
Вы не можете прикреплять файлы к сообщениям
Вы не можете скачивать файлы