(Classical) Lydiya Abramova (Лидия Абрамова), Oleg Yantchenko (Олег Янченко) - O, Madonna Maria (Mozart, Bizet, Gounod, Schubert, Cherubini, Vassallo, Buzzi, Goldenweiser, Mercandante, Caccini, Чайковский) - 1997, FLAC (tracks+.cue) lossless


 

[Цитировать]

Lydiya Abramova (Лидия Абрамова), Oleg Yantchenko (Олег Янченко) - O, Madonna Maria
Жанр: Classical
Страна-производитель диска: Russia
Год издания диска: 1997
Издатель (лейбл): L. Abramova
Номер по каталогу: LACD97002
Дата записи: 1996
Аудиокодек: FLAC
Тип рипа: tracks+.cue
Битрейт аудио: lossless
Продолжительность: 0:58:41.
Источник: собственный рип
Наличие сканов в содержимом раздачи: да
Треклист:
01. В.А. Моцарт. Аве Верум [0:02:15.15]
02. Ж.Бизе. Аве Мария [0:03:15.40]
03. Ш.Гуно. Аве Мария I [0:04:56.30]
04. Ф. Шуберт. Аве Мария [0:06:32.68]
05. Л. Керубини. Аве Мария [0:04:51.37]
06. Ф. Вассалло. J? Vfljyyf Vfhbz [0:04:14.25]
07. П. Буцци. Аве Мария [0:03:18.50]
08. Ш. Гуно. Аве Мария II [0:04:18.18]
09. Ж. Бизе. Агнус Деи [0:04:21.27]
10. А. Гольденвейзер. Аве Мария [0:02:24.10]
11. О. Янченко. Аве Мария [0:03:36.43]
12. П. Чайковский. Аве Мария (композиция на тему из симфонии №5) [0:03:58.35]
13. С.Меркаданте. Сальве, Мария [0:04:25.42]
14. Дж. Каччини. Аве Мария [0:06:12.25]
Исполнители:
Лидия Абрамова, сопрано;
Олег Янченко, орган;
Андрей Иков, труба;
Лев Каплан, альт;
Валентина Фадеева, гитара.

Лог создания рипа

Exact Audio Copy V1.0 beta 3 from 29. August 2011
Отчёт EAC об извлечении, выполненном 27. марта 2015, 21:16
Lydiya Abramova / O, Madonna Maria
Дисковод: ASUS DVD-E616A3T Adapter: 5 ID: 0
Режим чтения : ДостоверностьИспользование точного потока : ДаОтключение кэша аудио : ДаИспользование указателей C2 : Нет
Коррекция смещения при чтении : 6Способность читать области Lead-in и Lead-out : НетЗаполнение пропущенных сэмплов тишиной : ДаУдаление блоков с тишиной в начале и конце : НетПри вычислениях CRC использовались нулевые сэмплы : ДаИнтерфейс : Встроенный Win32-интерфейс для Win NT/2000Обработка зазоров : Добавлено к предыдущему треку
Выходной формат : Пользовательский кодировщикВыбранный битрейт : 128 kBit/sКачество : ВысокийДобавление ID3-тега : НетУтилита сжатия : C:\Program Files\Exact Audio Copy\Flac\flac.exeДополнительные параметры : -V -8 -T "Genre=%genre%" -T "Artist=%artist%" -T "Title=%title%" -T "Album=%albumtitle%" -T "Date=%year%" -T "Tracknumber=%tracknr%" -T "Comment=EAC1.0b2 FLAC -8" %source%
TOC извлечённого CD
Трек | Старт | Длительность | Начальный сектор | Конечный сектор --------------------------------------------------------------------- 1 | 0:00.00 | 2:15.15 | 0 | 10139 2 | 2:15.15 | 3:15.40 | 10140 | 24804 3 | 5:30.55 | 4:56.30 | 24805 | 47034 4 | 10:27.10 | 6:32.68 | 47035 | 76502 5 | 17:00.03 | 4:51.37 | 76503 | 98364 6 | 21:51.40 | 4:14.25 | 98365 | 117439 7 | 26:05.65 | 3:18.50 | 117440 | 132339 8 | 29:24.40 | 4:18.18 | 132340 | 151707 9 | 33:42.58 | 4:21.27 | 151708 | 171309 10 | 38:04.10 | 2:24.10 | 171310 | 182119 11 | 40:28.20 | 3:36.43 | 182120 | 198362 12 | 44:04.63 | 3:58.35 | 198363 | 216247 13 | 48:03.23 | 4:25.42 | 216248 | 236164 14 | 52:28.65 | 6:12.25 | 236165 | 264089
Трек 1
Имя файла R:\Раздача 42\Lydiya Abramova - 1996 - O, Madonna Maria\01 В.А. Моцарт. Аве Верум.wav
Длина предзазора 0:00:02.00
Пиковый уровень 28.4 % Скорость извлечения 1.4 X Качество трека 100.0 % CRC теста 2A1E0508 CRC копии 2A1E0508 Трек не обнаружен в базе AccurateRip Копирование... OK
Трек 2
Имя файла R:\Раздача 42\Lydiya Abramova - 1996 - O, Madonna Maria\02 Ж.Бизе. Аве Мария. Аве Мария.wav
Пиковый уровень 40.5 % Скорость извлечения 1.5 X Качество трека 99.9 % CRC теста 3587E4BF CRC копии 3587E4BF Трек не обнаружен в базе AccurateRip Копирование... OK
Трек 3
Имя файла R:\Раздача 42\Lydiya Abramova - 1996 - O, Madonna Maria\03 Ш.Гуно. Аве Мария I.wav
Пиковый уровень 51.8 % Скорость извлечения 2.0 X Качество трека 100.0 % CRC теста B357AF3D CRC копии B357AF3D Трек не обнаружен в базе AccurateRip Копирование... OK
Трек 4
Имя файла R:\Раздача 42\Lydiya Abramova - 1996 - O, Madonna Maria\04 Ф. Шуберт. Аве Мария.wav
Пиковый уровень 32.9 % Скорость извлечения 2.3 X Качество трека 100.0 % CRC теста FE46EF47 CRC копии FE46EF47 Трек не обнаружен в базе AccurateRip Копирование... OK
Трек 5
Имя файла R:\Раздача 42\Lydiya Abramova - 1996 - O, Madonna Maria\05 Л. Керубини. Аве Мария.wav
Пиковый уровень 55.8 % Скорость извлечения 1.9 X Качество трека 99.9 % CRC теста 4C808DA7 CRC копии 4C808DA7 Трек не обнаружен в базе AccurateRip Копирование... OK
Трек 6
Имя файла R:\Раздача 42\Lydiya Abramova - 1996 - O, Madonna Maria\06 Ф. Вассалло. J Vfljyyf Vfhbz.wav
Пиковый уровень 27.7 % Скорость извлечения 2.5 X Качество трека 100.0 % CRC теста 197F6C81 CRC копии 197F6C81 Трек не обнаружен в базе AccurateRip Копирование... OK
Трек 7
Имя файла R:\Раздача 42\Lydiya Abramova - 1996 - O, Madonna Maria\07 П. Буцци. Аве Мария.wav
Пиковый уровень 79.5 % Скорость извлечения 2.5 X Качество трека 100.0 % CRC теста DDD80306 CRC копии DDD80306 Трек не обнаружен в базе AccurateRip Копирование... OK
Трек 8
Имя файла R:\Раздача 42\Lydiya Abramova - 1996 - O, Madonna Maria\08 Ш. Гуно. Аве Мария II.wav
Пиковый уровень 51.2 % Скорость извлечения 2.7 X Качество трека 100.0 % CRC теста 29AF730A CRC копии 29AF730A Трек не обнаружен в базе AccurateRip Копирование... OK
Трек 9
Имя файла R:\Раздача 42\Lydiya Abramova - 1996 - O, Madonna Maria\09 Ж. Бизе. Агнус Деи.wav
Пиковый уровень 41.9 % Скорость извлечения 2.9 X Качество трека 100.0 % CRC теста AD4CEE21 CRC копии AD4CEE21 Трек не обнаружен в базе AccurateRip Копирование... OK
Трек 10
Имя файла R:\Раздача 42\Lydiya Abramova - 1996 - O, Madonna Maria\10 А. Гольденвейзер. Аве Мария.wav
Пиковый уровень 37.9 % Скорость извлечения 2.7 X Качество трека 100.0 % CRC теста D36689E7 CRC копии D36689E7 Трек не обнаружен в базе AccurateRip Копирование... OK
Трек 11
Имя файла R:\Раздача 42\Lydiya Abramova - 1996 - O, Madonna Maria\11 О. Янченко. Аве Мария.wav
Пиковый уровень 45.4 % Скорость извлечения 3.0 X Качество трека 100.0 % CRC теста A77493D1 CRC копии A77493D1 Трек не обнаружен в базе AccurateRip Копирование... OK
Трек 12
Имя файла R:\Раздача 42\Lydiya Abramova - 1996 - O, Madonna Maria\12 П. Чайковский. Аве Мария (композиция на тему из симфонии №5).wav
Пиковый уровень 38.3 % Скорость извлечения 3.1 X Качество трека 100.0 % CRC теста 64FC0385 CRC копии 64FC0385 Трек не обнаружен в базе AccurateRip Копирование... OK
Трек 13
Имя файла R:\Раздача 42\Lydiya Abramova - 1996 - O, Madonna Maria\13 С.Меркаданте. Сальве, Мария.wav
Пиковый уровень 40.1 % Скорость извлечения 3.3 X Качество трека 100.0 % CRC теста B51A6895 CRC копии B51A6895 Трек не обнаружен в базе AccurateRip Копирование... OK
Трек 14
Имя файла R:\Раздача 42\Lydiya Abramova - 1996 - O, Madonna Maria\14 Дж. Каччини. Аве Мария.wav
Пиковый уровень 56.5 % Скорость извлечения 3.5 X Качество трека 100.0 % CRC теста FA2C58BB CRC копии FA2C58BB Трек не обнаружен в базе AccurateRip Копирование... OK
Ни одного трека нет в базе AccurateRip
Ошибок не произошло
Конец отчёта
==== Контрольная сумма отчёта 7C21EF5548BE9E2C206E1AD68BBF010701D5A422A64CC7605046F212E5FE4C81 ====

Содержание индексной карты (.CUE)

REM GENRE ClassicalREM DATE 1997REM DISCID AF0DC10EREM COMMENT "ExactAudioCopy v1.0b3"PERFORMER "Lydiya Abramova "TITLE "O, Madonna Maria"FILE "01 В.А. Моцарт. Аве Верум.wav" WAVE TRACK 01 AUDIO TITLE "В.А. Моцарт. Аве Верум" PERFORMER "Lydiya Abramova " INDEX 01 00:00:00FILE "02 Ж.Бизе. Аве Мария. Аве Мария.wav" WAVE TRACK 02 AUDIO TITLE "Ж.Бизе. Аве Мария. Аве Мария" PERFORMER "Lydiya Abramova " INDEX 01 00:00:00FILE "03 Ш.Гуно. Аве Мария I.wav" WAVE TRACK 03 AUDIO TITLE "Ш.Гуно. Аве Мария I" PERFORMER "Lydiya Abramova " INDEX 01 00:00:00FILE "04 Ф. Шуберт. Аве Мария.wav" WAVE TRACK 04 AUDIO TITLE "Ф. Шуберт. Аве Мария" PERFORMER "Lydiya Abramova " INDEX 01 00:00:00FILE "05 Л. Керубини. Аве Мария.wav" WAVE TRACK 05 AUDIO TITLE "Л. Керубини. Аве Мария" PERFORMER "Lydiya Abramova " INDEX 01 00:00:00FILE "06 Ф. Вассалло. J Vfljyyf Vfhbz.wav" WAVE TRACK 06 AUDIO TITLE "Ф. Вассалло. J? Vfljyyf Vfhbz" PERFORMER "Lydiya Abramova " INDEX 01 00:00:00FILE "07 П. Буцци. Аве Мария.wav" WAVE TRACK 07 AUDIO TITLE "П. Буцци. Аве Мария" PERFORMER "Lydiya Abramova " INDEX 01 00:00:00FILE "08 Ш. Гуно. Аве Мария II.wav" WAVE TRACK 08 AUDIO TITLE "Ш. Гуно. Аве Мария II" PERFORMER "Lydiya Abramova " INDEX 01 00:00:00FILE "09 Ж. Бизе. Агнус Деи.wav" WAVE TRACK 09 AUDIO TITLE "Ж. Бизе. Агнус Деи" PERFORMER "Lydiya Abramova " INDEX 01 00:00:00FILE "10 А. Гольденвейзер. Аве Мария.wav" WAVE TRACK 10 AUDIO TITLE "А. Гольденвейзер. Аве Мария" PERFORMER "Lydiya Abramova " INDEX 01 00:00:00FILE "11 О. Янченко. Аве Мария.wav" WAVE TRACK 11 AUDIO TITLE "О. Янченко. Аве Мария" PERFORMER "Lydiya Abramova " INDEX 01 00:00:00FILE "12 П. Чайковский. Аве Мария (композиция на тему из симфонии №5).wav" WAVE TRACK 12 AUDIO TITLE "П. Чайковский. Аве Мария (композиция на тему из симфонии №5)" PERFORMER "Lydiya Abramova " INDEX 01 00:00:00FILE "13 С.Меркаданте. Сальве, Мария.wav" WAVE TRACK 13 AUDIO TITLE "С.Меркаданте. Сальве, Мария" PERFORMER "Lydiya Abramova " INDEX 01 00:00:00FILE "14 Дж. Каччини. Аве Мария.wav" WAVE TRACK 14 AUDIO TITLE "Дж. Каччини. Аве Мария" PERFORMER "Lydiya Abramova " INDEX 01 00:00:00



Показать сообщения:    

Текущее время: 06-Дек 22:54

Часовой пояс: UTC + 3


Вы не можете начинать темы
Вы не можете отвечать на сообщения
Вы не можете редактировать свои сообщения
Вы не можете удалять свои сообщения
Вы не можете голосовать в опросах
Вы не можете прикреплять файлы к сообщениям
Вы не можете скачивать файлы