(Classical-Medieval) Ecco la Primavera (Il Trecento Fiorentino)-Early Music Consort of London (David - 2002, FLAC (image+.cue) lossless


 

[Цитировать]

Ecco la Primavera (Il Trecento Fiorentino)-Early Music Consort of London (David Munrow)
Жанр: Classical-Medieval
Страна-производитель диска: Italia
Год издания диска: 2002
Издатель (лейбл): Gruppo Editoriale L'Espresso S.p.A.
Дата записи: 1969
Аудиокодек: FLAC
Тип рипа: image+.cue
Битрейт аудио: lossless
Продолжительность: 00.51.10
Источник: CD
Наличие сканов в содержимом раздачи: да
Треклист:
1.Ecco La Primavera– Francesco Landini 1.12
2.Lamento Di Tristan-Composed By – Anonymous 2.46
3.Giunta Vaga Bilta– Francesco Landini 3.19
4.Questa Fanciulla, Amor: I, II– Francesco Landini 4.29
5.Trotto– Anonymous 1.44
6.De Dimmi Tu– Francesco Landini
7.Con Dolce Brana– Maestro Piero 1.50
8.Two Saltarelli– Anonymous 3.00
9.Rosetta– Antonio Zacharia Da Terano* 2.30
10.Quan Je Voy Le Duc– Anonymous 2.19
11.Cara Me Donna– Francesco Landini 3.53
12.LaBionda Treccia– Francesco Landini 1.27
13.La Manfredina– Anonymous 1.36
14.Donna'l Tuo Partimento– Francesco Landini 1.36
15.Con Brac Che Assai– Giovanni Da Firenze 3.23
16.Istampitta Ghaetta– Anonymous 3.54
17.Da, Da, Da, A Chi Avareggia– Lorenzo Da Firenze 3.42
18.Fenice Fu– Jacopo Da Bologna 2.41
19.Biance Flour -Anonymous 1.58
total time 00.51.10
Исполнители:
The Early Music Consort of London:
James Bowman (counter-tenor)
Nigel Rogers (tenor)
Martyn Hill (tenor)
Oliver Brookes (bass viol),
Mary Remnant (treble rebec, fiddle),
Robert Spencer (lute),
Christopher Hogwood (organ, harp, percussion),
Alan Lumsden (tenor sackbut)
David Munrow (recorders, soprano & alto crumhorn, tenor shawm)
David Munrow dir.

Лог создания рипа

Exact Audio Copy V1.0 beta 4 from 7. December 2014
Отчёт EAC об извлечении, выполненном 10. апреля 2015, 18:32
Early Music Consort of London (David Munrow) / Florentine Music of the Fourteenth Century - CD1
Дисковод: hp DVD-RAM UJ8B1 Adapter: 1 ID: 0
Режим чтения : ДостоверностьИспользование точного потока : ДаОтключение кэша аудио : ДаИспользование указателей C2 : Нет
Коррекция смещения при чтении : 6Способность читать области Lead-in и Lead-out : НетЗаполнение пропущенных сэмплов тишиной : ДаУдаление блоков с тишиной в начале и конце : НетПри вычислениях CRC использовались нулевые сэмплы : ДаИнтерфейс : Установленный внешний ASPI-интерфейс
Выходной формат : Пользовательский кодировщикВыбранный битрейт : 128 kBit/sКачество : ВысокийДобавление ID3-тега : НетУтилита сжатия : D:\programm install 2\Exact Audio Copy\Flac\flac.exeДополнительные параметры : -V -8 -T "Date=%year%" -T "Genre=%genre%" %source%
TOC извлечённого CD
Трек | Старт | Длительность | Начальный сектор | Конечный сектор --------------------------------------------------------------------- 1 | 0:00.33 | 1:15.42 | 33 | 5699 2 | 1:16.00 | 2:49.68 | 5700 | 18442 3 | 4:05.68 | 3:23.50 | 18443 | 33717 4 | 7:29.43 | 4:32.42 | 33718 | 54159 5 | 12:02.10 | 1:46.73 | 54160 | 62182 6 | 13:49.08 | 2:48.72 | 62183 | 74854 7 | 16:38.05 | 1:53.15 | 74855 | 83344 8 | 18:31.20 | 3:03.73 | 83345 | 97142 9 | 21:35.18 | 2:33.25 | 97143 | 108642 10 | 24:08.43 | 2:22.00 | 108643 | 119292 11 | 26:30.43 | 3:56.45 | 119293 | 137037 12 | 30:27.13 | 1:30.67 | 137038 | 143854 13 | 31:58.05 | 1:39.55 | 143855 | 151334 14 | 33:37.60 | 1:39.70 | 151335 | 158829 15 | 35:17.55 | 3:25.33 | 158830 | 174237 16 | 38:43.13 | 3:57.57 | 174238 | 192069 17 | 42:40.70 | 3:46.15 | 192070 | 209034 18 | 46:27.10 | 2:45.50 | 209035 | 221459 19 | 49:12.60 | 1:58.03 | 221460 | 230312
Характеристики диапазона извлечения и сообщения об ошибках
Выбранный диапазон
Имя файла E:\загрузки\Ecco la Primavera\Early Music Consort of London (David Munrow) - Florentine Music of the Fourteenth Century - CD1.wav
Пиковый уровень 87.3 % Скорость извлечения 2.8 X Качество диапазона 100.0 % CRC теста 2AA32DE8 CRC копии 2AA32DE8 Копирование... OK
Ошибок не произошло
AccurateRip: сводка
Трек 1 точность не определена (достоверность 4) [FD4DF8B4], AccurateRip вернул [0B342998] (AR v2)Трек 2 точность не определена (достоверность 4) [78E40DA8], AccurateRip вернул [5B44CBE1] (AR v2)Трек 3 точность не определена (достоверность 4) [CEF45558], AccurateRip вернул [2F4E78BE] (AR v2)Трек 4 точность не определена (достоверность 4) [FA517CFC], AccurateRip вернул [37B445E0] (AR v2)Трек 5 точность не определена (достоверность 4) [3BD03C99], AccurateRip вернул [4F0F7799] (AR v2)Трек 6 точность не определена (достоверность 4) [7E7BE289], AccurateRip вернул [BE89011B] (AR v2)Трек 7 точность не определена (достоверность 4) [0F27393D], AccurateRip вернул [22ABB01A] (AR v2)Трек 8 точность не определена (достоверность 4) [9A5D5C07], AccurateRip вернул [14321B70] (AR v2)Трек 9 точность не определена (достоверность 4) [196E1ED4], AccurateRip вернул [A91925B8] (AR v2)Трек 10 точность не определена (достоверность 4) [D86096AC], AccurateRip вернул [C028085E] (AR v2)Трек 11 точность не определена (достоверность 4) [D878EA7C], AccurateRip вернул [EBD975F8] (AR v2)Трек 12 точность не определена (достоверность 4) [7FF2DADF], AccurateRip вернул [A75E2B4C] (AR v2)Трек 13 точность не определена (достоверность 4) [3F66CBA6], AccurateRip вернул [534F2E11] (AR v2)Трек 14 точность не определена (достоверность 4) [7E6D03B9], AccurateRip вернул [F6A6CA54] (AR v2)Трек 15 точность не определена (достоверность 4) [24D36B23], AccurateRip вернул [5092C742] (AR v2)Трек 16 точность не определена (достоверность 4) [ABDD1BEE], AccurateRip вернул [7A00969F] (AR v2)Трек 17 точность не определена (достоверность 4) [20BEDE04], AccurateRip вернул [6B1465B9] (AR v2)Трек 18 точность не определена (достоверность 4) [E11B45BD], AccurateRip вернул [2FEFF633] (AR v2)Трек 19 точность не определена (достоверность 4) [7F277905], AccurateRip вернул [57B23A91] (AR v2)
Ни один трек не прошёл проверки на точностьВ вашей базе может быть иной вариант штамповки диска
Конец отчёта
==== Контрольная сумма отчёта 65B628E49D87BAAD9149C3EBADFFABB4535FF7BE214DB44812C93D87EF81DB6C ====

Лог проверки качества

AUDIOCHECKER v2.0 beta (build 457) - by Dester - opdester@freemail.hu~~~~~~~~~~~~~~~~~~~~~~~~~~~~~~~~~~
Начато: пятница, 10. 04. 2015. - 19:12.45Найдено файлов: 1
1 -===- E:\загрузки\Ecco la Primavera\Early Music Consort of London (David Munrow) - Florentine Music of the Fourteenth Century - CD1.flac Извлечение успешно выполнено Заключение: этот трек - CDDA с вероятностью 100% Временный файл удалён.
Завершено: пятница, 10. 04. 2015. - 19:15.33 (Время операции: 0:02.47)



Показать сообщения:    

Текущее время: 08-Дек 19:02

Часовой пояс: UTC + 3


Вы не можете начинать темы
Вы не можете отвечать на сообщения
Вы не можете редактировать свои сообщения
Вы не можете удалять свои сообщения
Вы не можете голосовать в опросах
Вы не можете прикреплять файлы к сообщениям
Вы не можете скачивать файлы