(Choral, Vocal, Orchestral) Emils Darzins 120 - Izlase / Эмил Дарзиньш - Избранное (хоры, песни, Меланхолический вальс) - 1995, FLAC (image+.cue) lossless


 

[Цитировать]

Emīls Dārziņš 120 - Izlase
Жанр: Choral, Vocal, Orchestral
Страна-производитель диска: Latvija
Год издания диска: 1995
Издатель (лейбл): Rīgas Skaņu ierakstu studija
Номер по каталогу: RS 008
Дата записи: не известно
Аудиокодек: FLAC
Тип рипа: image+.cue
Битрейт аудио: lossless
Продолжительность: 01:00:28
Источник: собственный рип
Наличие сканов в содержимом раздачи: да
Треклист:
1 Pie tēvu zemes dārgās (To Homeland Dear)
2 Sapņu tālumā (In Distant Reveries)
3 Lauztās priedes (Broken Pines)
4 Mūžam zili (Forever Blue)
5 Mēness starus stīgo (Moonbeams Shooting Softly)
6 Senatne (Olden Times)
7 Nāru dziesma (The Song of the Mermaids)
8 Nāc man līdz (Come With Me)
9 Minjona (Mignon)
10 Ciānas bērni (The Children of Zion)
11 Ja uz Bētlemi es ietu (If I Were To Go To Bethlehem)
12 Teici to stundu, to brīdi (Tell Me the Hour, The Moment)
13 Aizver actiņas un smaidi (Close Your Eyes And Smile)
14 Mana laime (My Happiness)
15 Spāniešu romance (A Spanish Romance)
16 Tevi atstāju (Leaving You)
17 Rezignācija (Resignation)
18 Tev nosarkst vaigi (You Are Blushing)
19 Kaut reizi vien (But Once)
20 Vēl tu rozes plūc (You Pick Roses Yet)
21 Kā zagšus (As If Stealthily)
22 Melanholiskais valsis (The Melancholy Waltz)
Исполнители:
Мужской хор Dziedonis, дирижёр Имант Кокарс (1)
Смешанный хор Juventus, дирижёр Даумант Гайлис (2,3,5,6)
Мужской хор Tēvzeme, дирижёр Харалд Меднис (4)
Женский хор Dzintars, дирижёр Аусма Деркевица (7)
Мужской хор Gaudeamus, дирижёр Эдгар Рачевскис (8)
Камерный смешанный хор Ave Sol, дирижёр Имант Кокарс (9)
Смешанный хор Latvijas Radio koris, дирижёр Юрис Клявиньш (10,11)
Янис Заберс (12,13,14)
Петерис Гравелис (15)
Леонарда Дайне (16)
Карлис Зариньш (17,18,19)
Эгил Силиньш (20,21)
Концертмейстеры Вилма Цируле, Инта Виллеруша (20,21), Силвия Хейне (16)
Оркестр Valsts Simfoniskais orķestris, дирижёр Леонид Вигнерс (22)

Лог создания рипа

Exact Audio Copy V1.0 beta 3 from 29. August 2011
EAC extraction logfile from 16. July 2014, 21:32
Various Artists / Emiils Daarzinjsh 120
Used drive : PIONEER BD-RW BDR-206D Adapter: 1 ID: 1
Read mode : SecureUtilize accurate stream : YesDefeat audio cache : YesMake use of C2 pointers : No
Read offset correction : 667Overread into Lead-In and Lead-Out : NoFill up missing offset samples with silence : YesDelete leading and trailing silent blocks : NoNull samples used in CRC calculations : YesUsed interface : Native Win32 interface for Win NT & 2000
Used output format : User Defined EncoderSelected bitrate : 1024 kBit/sQuality : HighAdd ID3 tag : NoCommand line compressor : H:\Program Files\Exact Audio Copy\FLAC\FLAC.EXEAdditional command line options : -V -8 -T "Date=%year%" -T "Genre=%genre%" %source%
TOC of the extracted CD
Track | Start | Length | Start sector | End sector --------------------------------------------------------- 1 | 0:01.00 | 1:57.57 | 75 | 8906 2 | 1:58.57 | 3:09.20 | 8907 | 23101 3 | 5:08.02 | 3:02.38 | 23102 | 36789 4 | 8:10.40 | 2:29.05 | 36790 | 47969 5 | 10:39.45 | 2:55.42 | 47970 | 61136 6 | 13:35.12 | 3:41.50 | 61137 | 77761 7 | 17:16.62 | 1:54.15 | 77762 | 86326 8 | 19:11.02 | 1:37.73 | 86327 | 93674 9 | 20:49.00 | 2:39.25 | 93675 | 105624 10 | 23:28.25 | 2:44.30 | 105625 | 117954 11 | 26:12.55 | 3:34.15 | 117955 | 134019 12 | 29:46.70 | 2:08.40 | 134020 | 143659 13 | 31:55.35 | 2:05.07 | 143660 | 153041 14 | 34:00.42 | 1:23.03 | 153042 | 159269 15 | 35:23.45 | 3:09.65 | 159270 | 173509 16 | 38:33.35 | 2:22.00 | 173510 | 184159 17 | 40:55.35 | 4:52.10 | 184160 | 206069 18 | 45:47.45 | 1:55.15 | 206070 | 214709 19 | 47:42.60 | 1:50.17 | 214710 | 222976 20 | 49:33.02 | 2:08.65 | 222977 | 232641 21 | 51:41.67 | 1:58.15 | 232642 | 241506 22 | 53:40.07 | 6:48.58 | 241507 | 272164
Range status and errors
Selected range
Filename L:\Audio Lossless Latvija\VA. 1995 Emils Darzins 120\Various Artists - Emiils Daarzinjsh 120.wav
Peak level 99.8 % Extraction speed 1.4 X Range quality 99.9 % Test CRC 1CA0A2D2 Copy CRC 1CA0A2D2 Copy OK
No errors occurred
AccurateRip summary
Track 1 not present in databaseTrack 2 not present in databaseTrack 3 not present in databaseTrack 4 not present in databaseTrack 5 not present in databaseTrack 6 not present in databaseTrack 7 not present in databaseTrack 8 not present in databaseTrack 9 not present in databaseTrack 10 not present in databaseTrack 11 not present in databaseTrack 12 not present in databaseTrack 13 not present in databaseTrack 14 not present in databaseTrack 15 not present in databaseTrack 16 not present in databaseTrack 17 not present in databaseTrack 18 not present in databaseTrack 19 not present in databaseTrack 20 not present in databaseTrack 21 not present in databaseTrack 22 not present in database
None of the tracks are present in the AccurateRip database
End of status report
==== Log checksum 1EA09B6D1F62CB15A5543A5FB3EA44B34E8D07E269859F9FCA883D4D8F1B60DF ====

Содержание индексной карты (.CUE)

REM GENRE ClassicalREM DATE 1995REM DISCID 150E2B16REM COMMENT "ExactAudioCopy v1.0b3"PERFORMER "Various Artists"TITLE "Emiils Daarzinjsh 120"FILE "Various Artists - Emiils Daarzinjsh 120.flac" WAVE TRACK 01 AUDIO TITLE "Pie teevu zemes daargaas - koris 'Dziedonis'" PERFORMER "Various Artists" INDEX 00 00:00:00 INDEX 01 00:01:00 TRACK 02 AUDIO TITLE "Sapnju taalumaa - koris 'Juventus'" PERFORMER "Various Artists" INDEX 00 01:56:22 INDEX 01 01:58:57 TRACK 03 AUDIO TITLE "Lauztaas priedes - koris 'Juventus'" PERFORMER "Various Artists" INDEX 00 05:05:56 INDEX 01 05:08:02 TRACK 04 AUDIO TITLE "Muuzham zili - koris 'Teevzeme'" PERFORMER "Various Artists" INDEX 00 08:08:05 INDEX 01 08:10:40 TRACK 05 AUDIO TITLE "Meeness starus stiigo - koris 'Juventus'" PERFORMER "Various Artists" INDEX 00 10:37:10 INDEX 01 10:39:45 TRACK 06 AUDIO TITLE "Senatne - koris 'Juventus'" PERFORMER "Various Artists" INDEX 00 13:32:52 INDEX 01 13:35:12 TRACK 07 AUDIO TITLE "Naaru dziesma - koris 'Dzintars'" PERFORMER "Various Artists" INDEX 00 17:14:28 INDEX 01 17:16:62 TRACK 08 AUDIO TITLE "Naac man liidz - koris 'Gaudeamus'" PERFORMER "Various Artists" INDEX 00 19:08:42 INDEX 01 19:11:02 TRACK 09 AUDIO TITLE "Minjona - kamerkoris 'Ave Sol'" PERFORMER "Various Artists" INDEX 00 20:46:40 INDEX 01 20:49:00 TRACK 10 AUDIO TITLE "Ciaanas beerni - Latvijas radio koris" PERFORMER "Various Artists" INDEX 00 23:25:65 INDEX 01 23:28:25 TRACK 11 AUDIO TITLE "Ja uz Beetlemi es ietu - Latvijas radio koris" PERFORMER "Various Artists" INDEX 00 26:10:20 INDEX 01 26:12:55 TRACK 12 AUDIO TITLE "Teici to stundu, to briidi - Jaanis Zaabers" PERFORMER "Various Artists" INDEX 00 29:44:35 INDEX 01 29:46:70 TRACK 13 AUDIO TITLE "Aizver actinjas un smaidi - Jaanis Zaabers" PERFORMER "Various Artists" INDEX 00 31:53:00 INDEX 01 31:55:35 TRACK 14 AUDIO TITLE "Mana laime - Jaanis Zaabers" PERFORMER "Various Artists" INDEX 00 33:58:08 INDEX 01 34:00:42 TRACK 15 AUDIO TITLE "Spaanieshu romance - Peeteris Graavelis" PERFORMER "Various Artists" INDEX 00 35:21:10 INDEX 01 35:23:45 TRACK 16 AUDIO TITLE "Tevi atstaaju - Leonarda Daine" PERFORMER "Various Artists" INDEX 00 38:31:00 INDEX 01 38:33:35 TRACK 17 AUDIO TITLE "Rezignaacija - Kaarlis Zarinjsh" PERFORMER "Various Artists" INDEX 00 40:53:01 INDEX 01 40:55:35 TRACK 18 AUDIO TITLE "Tev nosarkst vaigi - Kaarlis Zarinjsh" PERFORMER "Various Artists" INDEX 00 45:45:11 INDEX 01 45:47:45 TRACK 19 AUDIO TITLE "Kaut reizi vien - Kaarlis Zarinjsh" PERFORMER "Various Artists" INDEX 00 47:40:25 INDEX 01 47:42:60 TRACK 20 AUDIO TITLE "Veel tu rozes pluuc - Egils Silinjsh" PERFORMER "Various Artists" INDEX 00 49:30:43 INDEX 01 49:33:02 TRACK 21 AUDIO TITLE "Kaa zagshus - Egils Silinjsh" PERFORMER "Various Artists" INDEX 00 51:39:33 INDEX 01 51:41:67 TRACK 22 AUDIO TITLE "Melanholiskais valsis - Valsts simfoniskais orkjestris, Leoniids Viigners" PERFORMER "Various Artists" INDEX 00 53:37:47 INDEX 01 53:40:07



Показать сообщения:    

Текущее время: 06-Дек 22:54

Часовой пояс: UTC + 3


Вы не можете начинать темы
Вы не можете отвечать на сообщения
Вы не можете редактировать свои сообщения
Вы не можете удалять свои сообщения
Вы не можете голосовать в опросах
Вы не можете прикреплять файлы к сообщениям
Вы не можете скачивать файлы