(vocal, romance) Nicolai Gedda (tenor) / Николай Гедда (тенор) - С.В. Рахманинов, Н.Н. Черепнин - Песни (романсы) (А.Вайссенберг, А.Черепнин - ф-но) - 1990, APE (image+.cue)


 

[Цитировать]

Nicolai Gedda / Николай Гедда - С.В. Рахманинов, Н.Н. Черепнин - Песни (романсы)
Жанр: vocal, romance
Страна-производитель диска: W. Germany
Год издания диска: 1990
Издатель (лейбл): EMI France
Номер по каталогу: CDM 7 63731 2
Дата записи: 1967-1973
Аудиокодек: APE
Тип рипа: image+.cue
Битрейт аудио: lossless
Продолжительность: 1:12:05
Источник: intoclassics.net
Треклист:
Сергей Рахманинов (1873-1943)
1. Они отвечали, Op.21 № 4
2. Не пой, красавица, Op.4 № 4
3. Сирень, Op.21 № 5
4. О, не грусти!, op.14 № 8
5. Буря, Op.34 № 3
6. К детям, Op.26 № 7
7. Христос воскрес, Op.26 № 6
8. У моего окна, Op.26 № 10
9. В молчаньи ночи тайной, Op.4 № 3
10. Вокализ, Op.34 № 14
11. Здесь хорошо, Op.21 № 7
12. Отрывок из Альфреда Мюссе, Op.21 № 6
13. Арион, Op.34 № 5
14. Сей день я помню, Op.34 № 10
15. Уж, ты нива моя, Op.4 № 5
16. Ветер перелётный, Op.34 № 4
17. Весенние воды, соч.14 № 11
Николай Черепнин (1873-1945)
18. Озеро, Op.16 № 3
19. Три домовины
20. Мир одиночества
21. Береза, Op.33 № 14
22. Осенняя песня, Op.7 № 1
23. Свечка догорела, Op.21 № 3
Исполнители:
Николай Гедда, тенор
Алексис Вайссенберг, фортепиано
Александр Черепнин, фортепиано (18-23)
1967-69, 1973гг., Париж

Лог создания рипа

Отчёт EAC об извлечении, выполненном 5. мая 2007, 14:11 для диска:Rachmaninov / Songs
Дисковод: SlimtypeDVDRW SOSW-833S Adapter: 1 ID: 0Режим чтения: Достоверный (C2: да, Точный поток: да, Отключение кэша: да)Комбинированное смещение чтения/записи: 0Способность читать области Lead-in и Lead-out : Нет
Выходной формат: Внутренние WAV-операции 44.100 Гц; 16 бит; стерео
Другие параметры: Заполнение пропущенных сэмплов тишиной : Да Удаление блоков с тишиной в начале и конце : Нет Встроенный Win32-интерфейс для Win NT/2000
Характеристики диапазона извлечения и сообщения об ошибкахВыбранный диапазон Имя файла C:\EXCHANGE\Rachmaninov_Tcherepnin\track.wav
Пиковый уровень 92.9 % Качество диапазона 100.0 % CRC DF2221B6 Копирование... OK
Ошибок не произошло
Конец отчёта

Содержание индексной карты (.CUE)

REM DISCID 4410E417REM COMMENT "ExactAudioCopy v0.95b4"PERFORMER "Rachmaninov"TITLE "Songs"FILE "Gedda - Rachmaninov.ape" WAVE TRACK 01 AUDIO TITLE "Reponse, Op.21 n°4 (1:42)" PERFORMER "Nicolai Gedda" INDEX 01 00:00:00 TRACK 02 AUDIO TITLE "Chanson georgienne, Op.4 n°4 (4:54)" PERFORMER "Nicolai Gedda" INDEX 01 01:42:55 TRACK 03 AUDIO TITLE "Les Lilas, Op.21 n°5 (1:46)" PERFORMER "Nicolai Gedda" INDEX 01 06:37:48 TRACK 04 AUDIO TITLE "Ne me regrette pas, Op.14 n°8 (2:51)" PERFORMER "Nicolai Gedda" INDEX 01 08:24:03 TRACK 05 AUDIO TITLE "La Tempete, Op.34 n°3 (2:27)" PERFORMER "Nicolai Gedda" INDEX 01 11:15:63 TRACK 06 AUDIO TITLE "Aux enfants, Op.26 n°7 (3:56)" PERFORMER "Nicolai Gedda" INDEX 01 13:43:48 TRACK 07 AUDIO TITLE "Le Christ Renait, Op.26 n°6 (2:43)" PERFORMER "Nicolai Gedda" INDEX 01 17:39:58 TRACK 08 AUDIO TITLE "Dans mon jardin je vois, Op.26 n°10 (2:03)" PERFORMER "Nicolai Gedda" INDEX 01 20:22:60 TRACK 09 AUDIO TITLE "Lorsque la nuit m'entoure, Op.4 n°3 (2:40)" PERFORMER "Nicolai Gedda" INDEX 01 22:26:38 TRACK 10 AUDIO TITLE "Vocalise, Op.34 n°14 (5:03)" PERFORMER "Nicolai Gedda" INDEX 01 25:07:28 TRACK 11 AUDIO TITLE "Tout est si beau, Op.21 n°7 (1:52)" PERFORMER "Nicolai Gedda" INDEX 01 30:10:65 TRACK 12 AUDIO TITLE "Un fragment d'Alfred de Musset, Op.21 n°6 (1:45)" PERFORMER "Nicolai Gedda" INDEX 01 32:03:15 TRACK 13 AUDIO TITLE "Arion, Op.34 n°5 (2:23)" PERFORMER "Nicolai Gedda" INDEX 01 33:48:43 TRACK 14 AUDIO TITLE "Ce jour d'extase, Op.34 n°10 (1:30)" PERFORMER "Nicolai Gedda" INDEX 00 36:11:54 INDEX 01 36:11:55 TRACK 15 AUDIO TITLE "Bles dores, moisson vaste, Op.4 n°5 (4:28)" PERFORMER "Nicolai Gedda" INDEX 01 37:42:43 TRACK 16 AUDIO TITLE "Une brise passe, Op.34 n°4 (2:57)" PERFORMER "Nicolai Gedda" INDEX 01 42:11:20 TRACK 17 AUDIO TITLE "Les eaux du printemps, Op.14 n°11 (2:05)" PERFORMER "Nicolai Gedda" INDEX 01 45:08:25 TRACK 18 AUDIO TITLE "Le lac du Tsar, Op.16 n°3; 2 Legendes mystiques, Op.50 (3..." PERFORMER "Nicolai Gedda" INDEX 01 47:14:15 TRACK 19 AUDIO TITLE "Trois Tombeaux (5:08)" PERFORMER "Nicolai Gedda" INDEX 01 51:09:25 TRACK 20 AUDIO TITLE "Mere solitude (5:58)" PERFORMER "Nicolai Gedda" INDEX 01 56:17:48 TRACK 21 AUDIO TITLE "Le Bouleau, Op.33 n°14 (4:05)" PERFORMER "Nicolai Gedda" INDEX 01 62:15:58 TRACK 22 AUDIO TITLE "Chant d'automne, Op.7 n°1 (3:26)" PERFORMER "Nicolai Gedda" INDEX 01 66:21:00 TRACK 23 AUDIO TITLE "La bougie s'est eteinte, Op.21 n°3 (2:17)" PERFORMER "Nicolai Gedda" INDEX 01 69:47:30

Лог проверки качества

AUDIOCHECKER v2.0 beta (build 457) - by Dester - opdester@freemail.hu~~~~~~~~~~~~~~~~~~~~~~~~~~~~~~~~~~-=== DO NOT EDIT THIS FILE! ===-
Path: ...\Nicolai Gedda - Rachmaninov, Tcherepnine - Songs
1 -=- Gedda - Rachmaninov.ape -=- CDDA (99%)
120404564

Скриншот спектра частот




Показать сообщения:    

Текущее время: 07-Дек 21:20

Часовой пояс: UTC + 3


Вы не можете начинать темы
Вы не можете отвечать на сообщения
Вы не можете редактировать свои сообщения
Вы не можете удалять свои сообщения
Вы не можете голосовать в опросах
Вы не можете прикреплять файлы к сообщениям
Вы не можете скачивать файлы