(Classical, Baroque) Andreas Scholl O Solitude (Purcell) - 2010, FLAC (tracks+.cue) lossless


 

[Цитировать]

O Solitude
Жанр: Classical, Baroque
Год издания диска: 2010
Издатель (лейбл): Decca
Номер по каталогу: 478 2262 DH
Дата записи: 2010
Аудиокодек: FLAC
Тип рипа: tracks+.cue
Битрейт аудио: lossless
Продолжительность: 01:16:40
Источник: собственный рип
Наличие сканов в содержимом раздачи: нет
Треклист:
01 If Music Be The Food Of Love
02 Come Ye Sons Of Art - Sound The Trumpet
03 Come, Ye Sons Of Art, Away (1694) Ode For The Birthday Of Queen Mary II - Strike The Viol, Touch The Lute
04 Chacony, Z628
05 King Arthur, Or The British Worthy (1691) , Act 5 - Fairest Isle
06 King Arthur, Or The British Worthy (1691) , Act 3 - What Power Art Thou
07 Chacony In G Minor Z730
08 The Fairy Queen , Act 2 - One Charming Night
09 Pausanius, The Betrayer Of His Country. (1695), Z585 - Original Version - Sweeter Than Roses
10 Dido And Aeneas , Act 3 - When I Am Laid In Earth - Dido's Lament)
11 The Gordian Knot Untied - Music For The Gordian Knot Unty'd
12 Ode For St. Cecilia's Day, ''Welcome To All The Pleasures'', Z339 - Original Version - Here The Deities Approve
13 Oedipus - Music For A While, Z583
14 O Dive Custos Auriacae Domus, Z504
15 O Solitude, My Sweetest Choice, Z406
16 Pavan In G Minor, Z752
17 An Evening Hymn, Z193
Исполнители:
Andreas Scholl
Accademia Bizantina
Stefano Montanari

Отчёт EAC

Exact Audio Copy V1.0 beta 4 from 7. December 2014
Отчёт EAC об извлечении, выполненном 9. марта 2015, 15:44
Andreas Scholl / O Solitude
Дисковод: ATAPI iHAS124 E Adapter: 1 ID: 0
Режим чтения : ДостоверностьИспользование точного потока : ДаОтключение кэша аудио : ДаИспользование указателей C2 : Нет
Коррекция смещения при чтении : 6Способность читать области Lead-in и Lead-out : НетЗаполнение пропущенных сэмплов тишиной : ДаУдаление блоков с тишиной в начале и конце : НетПри вычислениях CRC использовались нулевые сэмплы : ДаИнтерфейс : Встроенный Win32-интерфейс для Win NT/2000Обработка зазоров : Добавлено к предыдущему треку
Выходной формат : Пользовательский кодировщикВыбранный битрейт : 1024 kBit/sКачество : ВысокийДобавление ID3-тега : ДаУтилита сжатия : C:\Program Files (x86)\Exact Audio Copy\Flac\flac.exeДополнительные параметры : -V -8 -T "Genre=%genre%" -T "Artist=%artist%" -T "Title=%title%" -T "Album=%albumtitle%" -T "Date=%year%" -T "Tracknumber=%tracknr%" -T "Comment=%comment%" %source%
TOC извлечённого CD
Трек | Старт | Длительность | Начальный сектор | Конечный сектор --------------------------------------------------------------------- 1 | 0:00.00 | 2:15.31 | 0 | 10155 2 | 2:15.31 | 3:00.22 | 10156 | 23677 3 | 5:15.53 | 4:18.45 | 23678 | 43072 4 | 9:34.23 | 3:36.63 | 43073 | 59335 5 | 13:11.11 | 4:54.48 | 59336 | 81433 6 | 18:05.59 | 3:09.39 | 81434 | 95647 7 | 21:15.23 | 4:07.33 | 95648 | 114205 8 | 25:22.56 | 2:24.05 | 114206 | 125010 9 | 27:46.61 | 3:17.43 | 125011 | 139828 10 | 31:04.29 | 4:04.60 | 139829 | 158188 11 | 35:09.14 | 10:46.37 | 158189 | 206675 12 | 45:55.51 | 4:35.51 | 206676 | 227351 13 | 50:31.27 | 4:13.64 | 227352 | 246390 14 | 54:45.16 | 6:59.18 | 246391 | 277833 15 | 61:44.34 | 5:32.03 | 277834 | 302736 16 | 67:16.37 | 4:49.42 | 302737 | 324453 17 | 72:06.04 | 4:33.64 | 324454 | 344992
Трек 1
Имя файла Q:\Мои раздачи\Музыка\Andreas Scholl\O solitude\01 If Music Be The Food Of Love.wav
Длина предзазора 0:00:02.00
Пиковый уровень 85.7 % Скорость извлечения 4.3 X Качество трека 99.9 % CRC теста CFC39221 CRC копии CFC39221 Копирование... OK
Трек 2
Имя файла Q:\Мои раздачи\Музыка\Andreas Scholl\O solitude\02 Come Ye Sons Of Art - Sound The Trumpet.wav
Пиковый уровень 95.9 % Скорость извлечения 5.8 X Качество трека 100.0 % CRC теста 2F25A6AB CRC копии 2F25A6AB Копирование... OK
Трек 3
Имя файла Q:\Мои раздачи\Музыка\Andreas Scholl\O solitude\03 Come, Ye Sons Of Art, Away (1694) Ode For The Birthday Of Queen Mary II - Strike The Viol, Touch The Lute.wav
Пиковый уровень 76.4 % Скорость извлечения 6.0 X Качество трека 99.9 % CRC теста 6E0A2B79 CRC копии 6E0A2B79 Копирование... OK
Трек 4
Имя файла Q:\Мои раздачи\Музыка\Andreas Scholl\O solitude\04 Purcell- Chacony, Z628.wav
Пиковый уровень 57.8 % Скорость извлечения 6.9 X Качество трека 100.0 % CRC теста A6624CCD CRC копии A6624CCD Копирование... OK
Трек 5
Имя файла Q:\Мои раздачи\Музыка\Andreas Scholl\O solitude\05 King Arthur, Or The British Worthy (1691) , Act 5 - Fairest Isle.wav
Пиковый уровень 92.9 % Скорость извлечения 7.7 X Качество трека 100.0 % CRC теста 634174BD CRC копии 634174BD Копирование... OK
Трек 6
Имя файла Q:\Мои раздачи\Музыка\Andreas Scholl\O solitude\06 King Arthur, Or The British Worthy (1691) , Act 3 - What Power Art Thou.wav
Пиковый уровень 96.0 % Скорость извлечения 7.7 X Качество трека 100.0 % CRC теста EA1CB199 CRC копии EA1CB199 Копирование... OK
Трек 7
Имя файла Q:\Мои раздачи\Музыка\Andreas Scholl\O solitude\07 Chacony In G Minor Z730.wav
Пиковый уровень 86.0 % Скорость извлечения 8.3 X Качество трека 100.0 % CRC теста 1B2C15DB CRC копии 1B2C15DB Копирование... OK
Трек 8
Имя файла Q:\Мои раздачи\Музыка\Andreas Scholl\O solitude\08 Purcell- The Fairy Queen , Act 2 - One Charming Night.wav
Пиковый уровень 55.5 % Скорость извлечения 6.6 X Качество трека 99.9 % CRC теста BBEA8032 CRC копии BBEA8032 Копирование... OK
Трек 9
Имя файла Q:\Мои раздачи\Музыка\Andreas Scholl\O solitude\09 Pausanius, The Betrayer Of His Country. (1695), Z585 - Original Version - Sweeter Than Roses.wav
Пиковый уровень 95.6 % Скорость извлечения 8.5 X Качество трека 100.0 % CRC теста 3AE1D870 CRC копии 3AE1D870 Копирование... OK
Трек 10
Имя файла Q:\Мои раздачи\Музыка\Andreas Scholl\O solitude\10 Dido And Aeneas , Act 3 - When I Am Laid In Earth - Dido's Lament).wav
Пиковый уровень 90.2 % Скорость извлечения 9.2 X Качество трека 100.0 % CRC теста F26AA38C CRC копии F26AA38C Копирование... OK
Трек 11
Имя файла Q:\Мои раздачи\Музыка\Andreas Scholl\O solitude\11 Purcell- The Gordian Knot Untied - Music For The Gordian Knot Unty'd.wav
Пиковый уровень 81.6 % Скорость извлечения 10.7 X Качество трека 100.0 % CRC теста 89A937AF CRC копии 89A937AF Копирование... OK
Трек 12
Имя файла Q:\Мои раздачи\Музыка\Andreas Scholl\O solitude\12 Ode For St. Cecilia's Day, ''Welcome To All The Pleasures'', Z339 - Original Version - Here The Deities Approve.wav
Пиковый уровень 76.3 % Скорость извлечения 10.6 X Качество трека 100.0 % CRC теста F7B35673 CRC копии F7B35673 Копирование... OK
Трек 13
Имя файла Q:\Мои раздачи\Музыка\Andreas Scholl\O solitude\13 Purcell- Oedipus - Music For A While, Z583.wav
Пиковый уровень 86.7 % Скорость извлечения 10.7 X Качество трека 100.0 % CRC теста A93B39C8 CRC копии A93B39C8 Копирование... OK
Трек 14
Имя файла Q:\Мои раздачи\Музыка\Andreas Scholl\O solitude\14 O Dive Custos Auriacae Domus, Z504.wav
Пиковый уровень 95.9 % Скорость извлечения 11.6 X Качество трека 100.0 % CRC теста EC3B14D5 CRC копии EC3B14D5 Копирование... OK
Трек 15
Имя файла Q:\Мои раздачи\Музыка\Andreas Scholl\O solitude\15 O Solitude, My Sweetest Choice, Z406.wav
Пиковый уровень 95.1 % Скорость извлечения 11.9 X Качество трека 100.0 % CRC теста 92D7FE14 CRC копии 92D7FE14 Копирование... OK
Трек 16
Имя файла Q:\Мои раздачи\Музыка\Andreas Scholl\O solitude\16 Pavan In G Minor, Z752.wav
Пиковый уровень 84.2 % Скорость извлечения 12.0 X Качество трека 100.0 % CRC теста 03110BA5 CRC копии 03110BA5 Копирование... OK
Трек 17
Имя файла Q:\Мои раздачи\Музыка\Andreas Scholl\O solitude\17 An Evening Hymn, Z193.wav
Пиковый уровень 91.9 % Скорость извлечения 12.2 X Качество трека 100.0 % CRC теста 9EA519FB CRC копии 9EA519FB Копирование... OK
Ошибок не произошло
Конец отчёта
==== Контрольная сумма отчёта 75075063717913886D7119389E645845F0F68B46A69B364D56D3B5CC7A2C2D90 ====

Содержание индексной карты (.CUE)

REM GENRE ClassicalREM DATE 2010REM DISCID FB11F711REM COMMENT "ExactAudioCopy v1.0b4"CATALOG 0028947822622PERFORMER "Andreas Scholl"TITLE "O Solitude"FILE "01 If Music Be The Food Of Love.wav" WAVE TRACK 01 AUDIO TITLE "If Music Be The Food Of Love" PERFORMER "Andreas Scholl" ISRC GBBBA1043950 INDEX 01 00:00:00FILE "02 Come Ye Sons Of Art - Sound The Trumpet.wav" WAVE TRACK 02 AUDIO TITLE "Come Ye Sons Of Art - Sound The Trumpet" PERFORMER "Andreas Scholl" ISRC GBBBA1043930 INDEX 01 00:00:00FILE "03 Come, Ye Sons Of Art, Away (1694) Ode For The Birthday Of Queen Mary II - Strike The Viol, Touch The Lute.wav" WAVE TRACK 03 AUDIO TITLE "Come, Ye Sons Of Art, Away (1694) Ode For The Birthday Of Queen Mary II - Str..." PERFORMER "Andreas Scholl" ISRC GBBBA1043920 INDEX 01 00:00:00FILE "04 Purcell- Chacony, Z628.wav" WAVE TRACK 04 AUDIO TITLE "Purcell: Chacony, Z628" PERFORMER "Andreas Scholl" ISRC GBBBA1044020 INDEX 01 00:00:00FILE "05 King Arthur, Or The British Worthy (1691) , Act 5 - Fairest Isle.wav" WAVE TRACK 05 AUDIO TITLE "King Arthur, Or The British Worthy (1691) / Act 5 - Fairest Isle" PERFORMER "Andreas Scholl" ISRC GBBBA1044030 INDEX 01 00:00:00FILE "06 King Arthur, Or The British Worthy (1691) , Act 3 - What Power Art Thou.wav" WAVE TRACK 06 AUDIO TITLE "King Arthur, Or The British Worthy (1691) / Act 3 - What Power Art Thou?" PERFORMER "Andreas Scholl" ISRC GBBBA1044010 INDEX 01 00:00:00FILE "07 Chacony In G Minor Z730.wav" WAVE TRACK 07 AUDIO TITLE "Chacony In G Minor Z730" PERFORMER "Andreas Scholl" ISRC GBBBA1044050 INDEX 01 00:00:00FILE "08 Purcell- The Fairy Queen , Act 2 - One Charming Night.wav" WAVE TRACK 08 AUDIO TITLE "Purcell: The Fairy Queen / Act 2 - One Charming Night" PERFORMER "Andreas Scholl" ISRC GBBBA1044040 INDEX 01 00:00:00FILE "09 Pausanius, The Betrayer Of His Country. (1695), Z585 - Original Version - Sweeter Than Roses.wav" WAVE TRACK 09 AUDIO TITLE "Pausanius, The Betrayer Of His Country. (1695), Z585 - Original Version - Swe..." PERFORMER "Andreas Scholl" ISRC GBBBA1043990 INDEX 01 00:00:00FILE "10 Dido And Aeneas , Act 3 - When I Am Laid In Earth - Dido's Lament).wav" WAVE TRACK 10 AUDIO TITLE "Dido And Aeneas / Act 3 - When I Am Laid In Earth - Dido's Lament)" PERFORMER "Andreas Scholl" ISRC GBBBA1044000 INDEX 01 00:00:00FILE "11 Purcell- The Gordian Knot Untied - Music For The Gordian Knot Unty'd.wav" WAVE TRACK 11 AUDIO TITLE "Purcell: The Gordian Knot Untied - Music For The Gordian Knot Unty'd" PERFORMER "Andreas Scholl" ISRC GBBBA1000381 INDEX 01 00:00:00FILE "12 Ode For St. Cecilia's Day, ''Welcome To All The Pleasures'', Z339 - Original Version - Here The Deities Approve.wav" WAVE TRACK 12 AUDIO TITLE "Ode For St. Cecilia's Day, ''Welcome To All The Pleasures'', Z339 - Original ..." PERFORMER "Andreas Scholl" ISRC GBBBA1043940 INDEX 01 00:00:00FILE "13 Purcell- Oedipus - Music For A While, Z583.wav" WAVE TRACK 13 AUDIO TITLE "Purcell: Oedipus - Music For A While, Z583" PERFORMER "Andreas Scholl" ISRC GBBBA1043980 INDEX 01 00:00:00FILE "14 O Dive Custos Auriacae Domus, Z504.wav" WAVE TRACK 14 AUDIO TITLE "O Dive Custos Auriacae Domus, Z504" PERFORMER "Andreas Scholl" ISRC GBBBA1043970 INDEX 01 00:00:00FILE "15 O Solitude, My Sweetest Choice, Z406.wav" WAVE TRACK 15 AUDIO TITLE "O Solitude, My Sweetest Choice, Z406" PERFORMER "Andreas Scholl" ISRC GBBBA1043960 INDEX 01 00:00:00FILE "16 Pavan In G Minor, Z752.wav" WAVE TRACK 16 AUDIO TITLE "Pavan In G Minor, Z752" PERFORMER "Andreas Scholl" ISRC GBBBA1044060 INDEX 01 00:00:00FILE "17 An Evening Hymn, Z193.wav" WAVE TRACK 17 AUDIO TITLE "An Evening Hymn, Z193" PERFORMER "Andreas Scholl" ISRC GBBBA1043910 INDEX 01 00:00:00

Лог Audiockecker

AUDIOCHECKER v2.0 beta (build 457) - by Dester - opdester@freemail.hu~~~~~~~~~~~~~~~~~~~~~~~~~~~~~~~~~~-=== DO NOT EDIT THIS FILE! ===-
Путь: ...\O solitude
01 -=- 01 If Music Be The Food Of Love.flac -=- CDDA (100%)02 -=- 02 Come Ye Sons Of Art - Sound The Trumpet.flac -=- CDDA (100%)03 -=- 03 Come, Ye Sons Of Art, Away (1694) Ode For The Birthday Of Queen Mary II - Strike The Viol, Touch The Lute.flac -=- CDDA (100%)04 -=- 04 Purcell- Chacony, Z628.flac -=- CDDA (100%)05 -=- 05 King Arthur, Or The British Worthy (1691) , Act 5 - Fairest Isle.flac -=- CDDA (100%)06 -=- 06 King Arthur, Or The British Worthy (1691) , Act 3 - What Power Art Thou.flac -=- CDDA (100%)07 -=- 07 Chacony In G Minor Z730.flac -=- CDDA (99%)08 -=- 08 Purcell- The Fairy Queen , Act 2 - One Charming Night.flac -=- CDDA (100%)09 -=- 09 Pausanius, The Betrayer Of His Country. (1695), Z585 - Original Version - Sweeter Than Roses.flac -=- CDDA (100%)10 -=- 10 Dido And Aeneas , Act 3 - When I Am Laid In Earth - Dido's Lament).flac -=- CDDA (100%)11 -=- 11 Purcell- The Gordian Knot Untied - Music For The Gordian Knot Unty'd.flac -=- CDDA (100%)12 -=- 12 Ode For St. Cecilia's Day, ''Welcome To All The Pleasures'', Z339 - Original Version - Here The Deities Approve.flac -=- CDDA (100%)13 -=- 13 Purcell- Oedipus - Music For A While, Z583.flac -=- CDDA (100%)14 -=- 14 O Dive Custos Auriacae Domus, Z504.flac -=- CDDA (100%)15 -=- 15 O Solitude, My Sweetest Choice, Z406.flac -=- CDDA (100%)16 -=- 16 Pavan In G Minor, Z752.flac -=- CDDA (100%)17 -=- 17 An Evening Hymn, Z193.flac -=- CDDA (100%)
Сводка 99,94% CDDA
82966036



Показать сообщения:    

Текущее время: 09-Дек 18:34

Часовой пояс: UTC + 3


Вы не можете начинать темы
Вы не можете отвечать на сообщения
Вы не можете редактировать свои сообщения
Вы не можете удалять свои сообщения
Вы не можете голосовать в опросах
Вы не можете прикреплять файлы к сообщениям
Вы не можете скачивать файлы