(Vocal, Opera) Lebendige Vergangenheit - Maria Maksakova (Живая история - Мария Максакова) - 2006, FLAC (image+.cue), lossless


 

[Цитировать]

Lebendige Vergangenheit - Maria Maksakova
Жанр: Classical, Vocal
Страна-производитель диска: Germany
Год издания диска: 2006
Издатель (лейбл): Preiser Records
Номер по каталогу: 89646
Дата записи: ?
Аудиокодек: FLAC
Тип рипа: image+.cue
Битрейт аудио: lossless
Продолжительность: 78.56
Источник: собственный рип
Наличие сканов в содержимом раздачи: да

Треклист:

01. Mussorgsky - Khovanshchina: Mysterious forces, great powers
Marfa's fortune telling
02. Mussorgsky - Khovanshchina: I walked all through the meadow
Marfa's song & Duet with Dosifei ( with Mark Reizen)
03. Mussorgsky - Boris Godunov: Dimitri! Tsarevitch!
Duet Marina-Dimitri (with Nicolai Ozerov)
04. Bizet - Carmen: En vain pour eviter les reponses ameres
Carmen's card song
05. Massenet - Werther: Qui m'aurait dit la place
Charlotte's letter scene
06. Saint-Saens - Samson et Dalila: Printemps qui commence
Dalila's aria
07. Saint-Saens - Samson et Dalila: Mon coeur s'ouvre a ta voix
Dalila's aria & Duet with Samson (with Nikandr Khanaev)
08. Rimsky-Korsakov - Snow Maiden: Clouds plotted with thunder
Shepherd Lehl's third song
09. Mitzkevitch - Svitesjanka
Wagner - Wesendonk-Lieder
10. Der Engel
11. Stehe still
12. Im Treibhaus
13. Schmerzen
14. Traume
Total 78.56

Лог создания рипа:

Exact Audio Copy V1.0 beta 3 from 29. August 2011
Отчёт EAC об извлечении, выполненном 16. февраля 2015, 16:53
Maria Maksakova / Lebendige Vergangenheit
Дисковод: Optiarc DVD RW AD-7260S Adapter: 0 ID: 1
Режим чтения : ДостоверностьИспользование точного потока : ДаОтключение кэша аудио : ДаИспользование указателей C2 : Нет
Коррекция смещения при чтении : 48Способность читать области Lead-in и Lead-out : НетЗаполнение пропущенных сэмплов тишиной : ДаУдаление блоков с тишиной в начале и конце : НетПри вычислениях CRC использовались нулевые сэмплы : ДаИнтерфейс : Встроенный Win32-интерфейс для Win NT/2000
Выходной формат : Пользовательский кодировщикВыбранный битрейт : 896 kBit/sКачество : ВысокийДобавление ID3-тега : НетУтилита сжатия : C:\Program Files\FLAC Frontend\tools\flac.exeДополнительные параметры : -V -8 -T "Date=%year%" -T "Genre=%genre%" %source%
TOC извлечённого CD
Трек | Старт | Длительность | Начальный сектор | Конечный сектор --------------------------------------------------------------------- 1 | 0:00.00 | 6:26.22 | 0 | 28971 2 | 6:26.22 | 9:33.60 | 28972 | 72006 3 | 16:00.07 | 8:46.30 | 72007 | 111486 4 | 24:46.37 | 3:16.00 | 111487 | 126186 5 | 28:02.37 | 8:45.20 | 126187 | 165581 6 | 36:47.57 | 5:55.30 | 165582 | 192236 7 | 42:43.12 | 9:52.73 | 192237 | 236709 8 | 52:36.10 | 3:32.65 | 236710 | 252674 9 | 56:09.00 | 3:32.10 | 252675 | 268584 10 | 59:41.10 | 3:16.15 | 268585 | 283299 11 | 62:57.25 | 3:06.05 | 283300 | 297254 12 | 66:03.30 | 5:34.65 | 297255 | 322369 13 | 71:38.20 | 2:25.60 | 322370 | 333304 14 | 74:04.05 | 4:51.37 | 333305 | 355166
Характеристики диапазона извлечения и сообщения об ошибках
Выбранный диапазон
Имя файла N:\Lebendige Vergangenheit - Maria Makskova\Maria Maksakova - Lebendige Vergangenheit.wav
Пиковый уровень 100.0 % Скорость извлечения 4.6 X Качество диапазона 100.0 % CRC теста 7B536B8E CRC копии 7B536B8E Копирование... OK
Ошибок не произошло
AccurateRip: сводка
Трек 1 : извлечено точно (доверие 1) [04AC2F18] (AR v2)Трек 2 : извлечено точно (доверие 1) [0BAFBFDF] (AR v2)Трек 3 : извлечено точно (доверие 1) [84531696] (AR v2)Трек 4 : извлечено точно (доверие 1) [3C607DA7] (AR v2)Трек 5 : извлечено точно (доверие 1) [1EE87A37] (AR v2)Трек 6 : извлечено точно (доверие 1) [17DD9F95] (AR v2)Трек 7 : извлечено точно (доверие 1) [B97B216B] (AR v2)Трек 8 : извлечено точно (доверие 1) [8FA79526] (AR v2)Трек 9 : извлечено точно (доверие 1) [82059AFB] (AR v2)Трек 10 : извлечено точно (доверие 1) [A864E171] (AR v2)Трек 11 : извлечено точно (доверие 1) [9B611B0E] (AR v2)Трек 12 : извлечено точно (доверие 1) [FC91E3EC] (AR v2)Трек 13 : извлечено точно (доверие 1) [B953698B] (AR v2)Трек 14 : извлечено точно (доверие 1) [50549296] (AR v2)
Все треки извлечены точно
Конец отчёта
==== Контрольная сумма отчёта 78013F395F705ED74B7775AAFED0FC170BC672CE24628D2B36DD76BC41B7D19C ====

Исполнители:

Мария Максакова, меццо сопрано
Симфонический Оркестр Большого Театра
Василий Небольсин (1, 2, 4)
Николай Голованов (3, 9-14)
О. Брон (5)
Александр Мелик-Пашаев (6,7)
Кирилл Кондрашин (8)



Показать сообщения:    

Текущее время: 03-Дек 12:35

Часовой пояс: UTC + 3


Вы не можете начинать темы
Вы не можете отвечать на сообщения
Вы не можете редактировать свои сообщения
Вы не можете удалять свои сообщения
Вы не можете голосовать в опросах
Вы не можете прикреплять файлы к сообщениям
Вы не можете скачивать файлы