(Classical) Love, Revelry and the Dance in Mediaeval Music - Millenarium, Choeur de Chambre de Namur - 7CD - 2012, FLAC (image+.cue) lossless


 

[Цитировать]

Love, Revelry and the Dance in Mediaeval Music - Millenarium, Choeur de Chambre de Namur - 7CD
Жанр: Classical
Страна-производитель диска: Belgium
Год издания диска: 2012
Издатель (лейбл): Ricercar
Номер по каталогу: RIC 328
Дата записи: 1998-2007
Аудиокодек: FLAC
Тип рипа: image+.cue
Битрейт аудио: lossless
Продолжительность: 7:54:50
Источник: собственный рип
Наличие сканов в содержимом раздачи: да
Треклист:
Love, Revelry and the Dance in Mediaeval Music

CD1: Troubadours' Songs and Jongleurs' Dances

[1] Anonymous: Dananza amorosa
[2] Thibaut de Champagne: Amour me fait commencer une chanson
[3] Bernard de Ventadorn: Can vei la lauzeta mover
[4] Anonymous: Comminciamento di gioia
[5] Bernard de Ventadorn: Ben m'an perdut
[6] Gaucelm Faidit: Fortz chausa es
[7] Beranguier de Palol: Tant m'abelis
[8] Anonymous: La nova estampida real
[9] Gaucelm Faidit: Jamais nuill tems
[10] Gaucelm Faidit: Lo rossinholet selvatge
[11] Anonymous: Improvisation sur Quis dabit occuli mei

CD2: Trouveres Songs and Minstrels' Dances

[1] Anonymous: Au renouvel du tens
[2] Thibaut de Champagne: Dame, ensinc est
[3] Anonymous: Rose des rosaces
[4] Chastelain de Couci: Li nouviau tanz
[5] after Lambert Ferri: Improvisation sur Aymans, fins
[6] Moniot d'Arras: Ce fut en mai
[7] Anonymous: La tierche estampie royale
[8] Anonymous: Pou coi me bait mes maris
[9] after Arnautz Daniel: Estampida Arnautz
[10] Blanche de Castille: Amours, ou trop tart me sui pris
[11] Gautier d'Epinal: Touz esforciez avrai chante sovent
[12] after Richard Coeur de Lion: Estampie Janus
[13] Gace Brule: Douce Dame grez et graces vos rent

CD3: Carmina Burana

[1] Tempus transit gelidum
[2] Sic mea fata
[3] Dananza Gedeonis
[4] Clauso chrono
[5] Improvisation (percussions)
[6] Veris dulcis in tempore
[7] Improvisation (flute)
[8] Celum non animum I
[9] Estampie G'en ferai droit
[10] Fas et nefas ambulant
[11] Improvisation (fiddle)
[12] Celum non animum II
[13] Improvisation (organetto)
[14] Caterine collaudamus
[15] Veritas veritatum
[16] Danxa aurea di Phebo
[17] Nota perdita
[18] Dulce solum

CD4: Carmina Burana. Officium Lusorum

[1] Estampida de Rocamadour
[2] Introitus: Lugeamus omnes - Oratio: Fraus vobis. Tibi leccatori
[3] Kyrie cum Jubilo - Gloria cum Jubilo
[4] Epistola - Graduale - Alleluia - Sequentia - Conductus ad evangelium - Evange...
[5] Credo
[6] Offertorium: Loculum humilem
[7] Sanctus
[8] Agnus Dei
[9] Communio: Mirabantur omnes inter se

CD5: Danza

[1] Totz altres joys
[2] A que as cousas coitadas
[3] Trotto
[4] La quarte estampie royal
[5] Nota sebissa
[6] Estampita sirena
[7] Principio di virtu
[8] La Manfredina e sua rota
[9] Saltarello IV
[10] La septime estampie real
[11] Danse angloise
[12] Saltarello VIII
[13] Nota manta
[14] Lamento di Tristano e sua rota
[15] Da che Deus mamou
[16] Saltarello 'petits riens'
[17] Amors m'est u cuer entree
[18] Lamento du Valfoumi
[19] Ghaetta

CD6: Llibre Vermell

[1] Procession des pelerins
[2] Llibre Vermell: Cuncti simus concanentes
[3] Llibre Vermell: Imperairitz - Verges ses par
[4] Gregorian Chant : Kyrie Rex virginum
[5] Res est mirabilis
[6] Gregorian Chant : Ave Maria
[7] Llibre Vermell: Mariam Matrem
[8] Bal redon
[9] Llibre Vermell: Los set goyts recomptarem
[10] Gregorian Chant : Advocatam innocemus
[11] O Virgo splendens in monte
[12] Danza vermeillosa
[13] Llibre Vermell: Laudemus virginem
[14] Stella splendens in monte
[15] Fauvel nous a fait present (Roman de Fauvel)
[16] Gregorian Chant : Mater patris et filia
[17] Llibre Vermell: Splendens ceptigera
[18] Llibre Vermell: Polorum regina
[19] Gregorian Chant : Agnus Dei - Ave Maria
[20] Ad mortem festinamus

CD7: The Masters of Florentine Organetto

[1] Anonymous: Estampida de maia
[2] Lorenzo Masini: Non vedi tu, Amor
[3] after Gherardello da Firenze: I'vo bene
[4] Anonymous: Che ti cova nascondere
[5] Anonymous: Lucente Stella
[6] Anonymous: Istampita Isabella
[7] Anonymous: Kyrie cunctipotens
[8] Francesco Landini: Giovine vagha
[9] Francesco Landini: Donna, perche mi spregi
[10] after Francesco Landini: Amor cal tuo sogetto ognor mi trovo
[11] Anonymous: Istampita In pro
[12] after Francesco Landini: Intermezzo
[13] Anonymous: Estampida de Rocamadour
Исполнители:
Millenarium
Choeur de Chambre de Namur

Лог создания рипа: CD1

Exact Audio Copy V1.0 beta 3 from 29. August 2011
EAC extraction logfile from 20. September 2014, 21:31
Millenarium / Troubadours' Songs and Jongleurs' Dances
Used drive : HL-DT-STDVDRAM GU70N Adapter: 0 ID: 0
Read mode : SecureUtilize accurate stream : YesDefeat audio cache : YesMake use of C2 pointers : No
Read offset correction : 48Overread into Lead-In and Lead-Out : NoFill up missing offset samples with silence : YesDelete leading and trailing silent blocks : NoNull samples used in CRC calculations : YesUsed interface : Native Win32 interface for Win NT & 2000
Used output format : User Defined EncoderSelected bitrate : 128 kBit/sQuality : HighAdd ID3 tag : NoCommand line compressor : C:\Program Files (x86)\Exact Audio Copy\Flac\flac.exeAdditional command line options : -V -8 -T "Date=%year%" -T "Genre=%genre%" %source%
TOC of the extracted CD
Track | Start | Length | Start sector | End sector --------------------------------------------------------- 1 | 0:00.00 | 4:20.21 | 0 | 19520 2 | 4:20.21 | 3:05.16 | 19521 | 33411 3 | 7:25.37 | 5:56.60 | 33412 | 60171 4 | 13:22.22 | 5:19.25 | 60172 | 84121 5 | 18:41.47 | 6:22.20 | 84122 | 112791 6 | 25:03.67 | 12:08.19 | 112792 | 167410 7 | 37:12.11 | 2:04.18 | 167411 | 176728 8 | 39:16.29 | 4:42.09 | 176729 | 197887 9 | 43:58.38 | 5:55.40 | 197888 | 224552 10 | 49:54.03 | 8:02.22 | 224553 | 260724 11 | 57:56.25 | 5:14.62 | 260725 | 284336
Range status and errors
Selected range
Filename C:\temp\CD1 - Troubadours' Songs and Jongleurs' Dances\Troubadours' Songs and Jongleurs' Dances.wav
Peak level 90.5 % Extraction speed 2.1 X Range quality 100.0 % Test CRC AA0F1887 Copy CRC AA0F1887 Copy OK
No errors occurred
AccurateRip summary
Track 1 accurately ripped (confidence 4) [C0AA1D85] (AR v2)Track 2 accurately ripped (confidence 4) [153CA4E5] (AR v2)Track 3 accurately ripped (confidence 4) [7FBD714A] (AR v2)Track 4 accurately ripped (confidence 4) [FD1B3A0E] (AR v2)Track 5 accurately ripped (confidence 4) [09A9F35C] (AR v2)Track 6 accurately ripped (confidence 4) [6B408D0B] (AR v2)Track 7 accurately ripped (confidence 4) [04A41EB2] (AR v2)Track 8 accurately ripped (confidence 4) [7A405D56] (AR v2)Track 9 accurately ripped (confidence 4) [1D7B1050] (AR v2)Track 10 accurately ripped (confidence 4) [6A6A05A5] (AR v2)Track 11 accurately ripped (confidence 4) [4CEDD2A5] (AR v2)
All tracks accurately ripped
End of status report
==== Log checksum A63E965381A4E4BA22FA33B1D7BE148DBEEC15AFDCCF5F48FCDC45D706B99342 ====

Лог создания рипа: CD2

Exact Audio Copy V1.0 beta 3 from 29. August 2011
EAC extraction logfile from 28. August 2014, 18:05
Millenarium / Trouveres Songs and Minstrels' Dances
Used drive : HL-DT-STDVDRAM GU70N Adapter: 0 ID: 0
Read mode : SecureUtilize accurate stream : YesDefeat audio cache : YesMake use of C2 pointers : No
Read offset correction : 48Overread into Lead-In and Lead-Out : NoFill up missing offset samples with silence : YesDelete leading and trailing silent blocks : NoNull samples used in CRC calculations : YesUsed interface : Native Win32 interface for Win NT & 2000
Used output format : User Defined EncoderSelected bitrate : 128 kBit/sQuality : HighAdd ID3 tag : NoCommand line compressor : C:\Program Files (x86)\Exact Audio Copy\Flac\flac.exeAdditional command line options : -V -8 -T "Date=%year%" -T "Genre=%genre%" %source%
TOC of the extracted CD
Track | Start | Length | Start sector | End sector --------------------------------------------------------- 1 | 0:00.00 | 1:59.07 | 0 | 8931 2 | 1:59.07 | 9:31.44 | 8932 | 51800 3 | 11:30.51 | 2:12.29 | 51801 | 61729 4 | 13:43.05 | 3:52.06 | 61730 | 79135 5 | 17:35.11 | 6:55.25 | 79136 | 110285 6 | 24:30.36 | 1:26.09 | 110286 | 116744 7 | 25:56.45 | 4:48.51 | 116745 | 138395 8 | 30:45.21 | 2:32.04 | 138396 | 149799 9 | 33:17.25 | 4:03.31 | 149800 | 168055 10 | 37:20.56 | 7:44.50 | 168056 | 202905 11 | 45:05.31 | 5:17.16 | 202906 | 226696 12 | 50:22.47 | 3:07.49 | 226697 | 240770 13 | 53:30.21 | 10:23.40 | 240771 | 287535
Range status and errors
Selected range
Filename C:\temp\Love, Revelry and the Dance in Mediaeval Music\CD2 - Trouveres Songs and Minstrels' Dances\Trouveres Songs and Minstrels' Dances.wav
Peak level 77.7 % Extraction speed 2.1 X Range quality 100.0 % Test CRC 9E3A82E4 Copy CRC 9E3A82E4 Copy OK
No errors occurred
AccurateRip summary
Track 1 accurately ripped (confidence 4) [0E135199] (AR v2)Track 2 accurately ripped (confidence 4) [115FA890] (AR v2)Track 3 accurately ripped (confidence 4) [966C3E1A] (AR v2)Track 4 accurately ripped (confidence 4) [97E632BD] (AR v2)Track 5 accurately ripped (confidence 4) [ADC23513] (AR v2)Track 6 accurately ripped (confidence 4) [D961A93A] (AR v2)Track 7 accurately ripped (confidence 4) [3B77AD4E] (AR v2)Track 8 accurately ripped (confidence 4) [84DCDC1B] (AR v2)Track 9 accurately ripped (confidence 4) [8960222B] (AR v2)Track 10 accurately ripped (confidence 4) [49B35ECF] (AR v2)Track 11 accurately ripped (confidence 4) [401B6E7B] (AR v2)Track 12 accurately ripped (confidence 4) [4E96B07E] (AR v2)Track 13 accurately ripped (confidence 4) [E52EAACC] (AR v2)
All tracks accurately ripped
End of status report
==== Log checksum 2ED356C05D60D626EDDC92F9B1DB9998187593CBE3A17A7DCD401503EC6B8E35 ====

Лог создания рипа: CD3

Exact Audio Copy V1.0 beta 3 from 29. August 2011
EAC extraction logfile from 29. August 2014, 0:49
Millenarium / Carmina Burana
Used drive : HL-DT-STDVDRAM GU70N Adapter: 0 ID: 0
Read mode : SecureUtilize accurate stream : YesDefeat audio cache : YesMake use of C2 pointers : No
Read offset correction : 48Overread into Lead-In and Lead-Out : NoFill up missing offset samples with silence : YesDelete leading and trailing silent blocks : NoNull samples used in CRC calculations : YesUsed interface : Native Win32 interface for Win NT & 2000
Used output format : User Defined EncoderSelected bitrate : 128 kBit/sQuality : HighAdd ID3 tag : NoCommand line compressor : C:\Program Files (x86)\Exact Audio Copy\Flac\flac.exeAdditional command line options : -V -8 -T "Date=%year%" -T "Genre=%genre%" %source%
TOC of the extracted CD
Track | Start | Length | Start sector | End sector --------------------------------------------------------- 1 | 0:00.00 | 3:51.08 | 0 | 17332 2 | 3:51.08 | 4:31.44 | 17333 | 37701 3 | 8:22.52 | 5:11.69 | 37702 | 61095 4 | 13:34.46 | 7:26.33 | 61096 | 94578 5 | 21:01.04 | 1:36.33 | 94579 | 101811 6 | 22:37.37 | 5:38.58 | 101812 | 127219 7 | 28:16.20 | 1:02.65 | 127220 | 131934 8 | 29:19.10 | 3:43.26 | 131935 | 148685 9 | 33:02.36 | 3:28.31 | 148686 | 164316 10 | 36:30.67 | 2:41.53 | 164317 | 176444 11 | 39:12.45 | 1:36.63 | 176445 | 183707 12 | 40:49.33 | 3:23.74 | 183708 | 199006 13 | 44:13.32 | 3:08.15 | 199007 | 213121 14 | 47:21.47 | 3:45.21 | 213122 | 230017 15 | 51:06.68 | 6:35.48 | 230018 | 259690 16 | 57:42.41 | 2:45.03 | 259691 | 272068 17 | 60:27.44 | 4:42.48 | 272069 | 293266 18 | 65:10.17 | 5:28.64 | 293267 | 317930
Range status and errors
Selected range
Filename C:\temp\Love, Revelry and the Dance in Mediaeval Music\CD3 - Carmina Burana\Carmina Burana.wav
Peak level 100.0 % Extraction speed 2.3 X Range quality 100.0 % Test CRC 29600A99 Copy CRC 29600A99 Copy OK
No errors occurred
AccurateRip summary
Track 1 accurately ripped (confidence 4) [8C76D779] (AR v2)Track 2 accurately ripped (confidence 4) [0D71439A] (AR v2)Track 3 accurately ripped (confidence 4) [FCD7056F] (AR v2)Track 4 accurately ripped (confidence 4) [FB4E2D37] (AR v2)Track 5 accurately ripped (confidence 4) [98C5F699] (AR v2)Track 6 accurately ripped (confidence 4) [25E1C33B] (AR v2)Track 7 accurately ripped (confidence 4) [7343BEBF] (AR v2)Track 8 accurately ripped (confidence 4) [E8D8721B] (AR v2)Track 9 accurately ripped (confidence 4) [B3D43FBE] (AR v2)Track 10 accurately ripped (confidence 4) [AB13D981] (AR v2)Track 11 accurately ripped (confidence 4) [3D26706B] (AR v2)Track 12 accurately ripped (confidence 4) [C8EE8F8E] (AR v2)Track 13 accurately ripped (confidence 4) [914B5B65] (AR v2)Track 14 accurately ripped (confidence 4) [73FF092A] (AR v2)Track 15 accurately ripped (confidence 4) [C69B4A1C] (AR v2)Track 16 accurately ripped (confidence 4) [A244579F] (AR v2)Track 17 accurately ripped (confidence 4) [41A56C76] (AR v2)Track 18 accurately ripped (confidence 4) [CF7342D5] (AR v2)
All tracks accurately ripped
End of status report
==== Log checksum E33AD9D4DB6144F0C663D391ECAC61B4DBDE86D4D3FE2270442EE64709374370 ====

Лог создания рипа: CD4

Exact Audio Copy V1.0 beta 3 from 29. August 2011
EAC extraction logfile from 29. August 2014, 21:16
Millenarium / Carmina Burana. Officium Lusorum
Used drive : HL-DT-STDVDRAM GU70N Adapter: 0 ID: 0
Read mode : SecureUtilize accurate stream : YesDefeat audio cache : YesMake use of C2 pointers : No
Read offset correction : 48Overread into Lead-In and Lead-Out : NoFill up missing offset samples with silence : YesDelete leading and trailing silent blocks : NoNull samples used in CRC calculations : YesUsed interface : Native Win32 interface for Win NT & 2000
Used output format : User Defined EncoderSelected bitrate : 128 kBit/sQuality : HighAdd ID3 tag : NoCommand line compressor : C:\Program Files (x86)\Exact Audio Copy\Flac\flac.exeAdditional command line options : -V -8 -T "Date=%year%" -T "Genre=%genre%" %source%
TOC of the extracted CD
Track | Start | Length | Start sector | End sector --------------------------------------------------------- 1 | 0:00.00 | 8:00.24 | 0 | 36023 2 | 8:00.24 | 4:39.69 | 36024 | 57017 3 | 12:40.18 | 5:08.06 | 57018 | 80123 4 | 17:48.24 | 24:25.33 | 80124 | 190031 5 | 42:13.57 | 4:37.36 | 190032 | 210842 6 | 46:51.18 | 5:43.69 | 210843 | 236636 7 | 52:35.12 | 14:08.59 | 236637 | 300295 8 | 66:43.71 | 1:05.42 | 300296 | 305212 9 | 67:49.38 | 9:12.44 | 305213 | 346656
Range status and errors
Selected range
Filename C:\temp\Love, Revelry and the Dance in Mediaeval Music\CD4 - Carmina Burana. Officium Lusorum\Carmina Burana. Officium Lusorum.wav
Peak level 100.0 % Extraction speed 2.3 X Range quality 99.9 % Test CRC 7B917E69 Copy CRC 7B917E69 Copy OK
No errors occurred
AccurateRip summary
Track 1 accurately ripped (confidence 4) [83487326] (AR v2)Track 2 accurately ripped (confidence 4) [597025A6] (AR v2)Track 3 accurately ripped (confidence 4) [B1712D45] (AR v2)Track 4 accurately ripped (confidence 4) [086EB935] (AR v2)Track 5 accurately ripped (confidence 4) [573BABD9] (AR v2)Track 6 accurately ripped (confidence 4) [FFEE77F8] (AR v2)Track 7 accurately ripped (confidence 4) [1818A8A9] (AR v2)Track 8 accurately ripped (confidence 4) [FF9F6765] (AR v2)Track 9 accurately ripped (confidence 4) [C8E20C22] (AR v2)
All tracks accurately ripped
End of status report
==== Log checksum 30CF35F87CDFD09864678DFBEEA5FFA8271AE000B0D6D0FEC00ED9A33015666F ====

Лог создания рипа: CD5

Exact Audio Copy V1.0 beta 3 from 29. August 2011
EAC extraction logfile from 30. August 2014, 1:39
Millenarium / Danza
Used drive : HL-DT-STDVDRAM GU70N Adapter: 0 ID: 0
Read mode : SecureUtilize accurate stream : YesDefeat audio cache : YesMake use of C2 pointers : No
Read offset correction : 48Overread into Lead-In and Lead-Out : NoFill up missing offset samples with silence : YesDelete leading and trailing silent blocks : NoNull samples used in CRC calculations : YesUsed interface : Native Win32 interface for Win NT & 2000
Used output format : User Defined EncoderSelected bitrate : 128 kBit/sQuality : HighAdd ID3 tag : NoCommand line compressor : C:\Program Files (x86)\Exact Audio Copy\Flac\flac.exeAdditional command line options : -V -8 -T "Date=%year%" -T "Genre=%genre%" %source%
TOC of the extracted CD
Track | Start | Length | Start sector | End sector --------------------------------------------------------- 1 | 0:00.00 | 4:52.71 | 0 | 21970 2 | 4:52.71 | 3:02.24 | 21971 | 35644 3 | 7:55.20 | 2:30.25 | 35645 | 46919 4 | 10:25.45 | 2:13.46 | 46920 | 56940 5 | 12:39.16 | 2:28.54 | 56941 | 68094 6 | 15:07.70 | 2:50.27 | 68095 | 80871 7 | 17:58.22 | 6:46.40 | 80872 | 111361 8 | 24:44.62 | 2:56.09 | 111362 | 124570 9 | 27:40.71 | 2:18.43 | 124571 | 134963 10 | 29:59.39 | 2:31.69 | 134964 | 146357 11 | 32:31.33 | 1:55.17 | 146358 | 154999 12 | 34:26.50 | 2:19.61 | 155000 | 165485 13 | 36:46.36 | 8:05.46 | 165486 | 201906 14 | 44:52.07 | 5:45.38 | 201907 | 227819 15 | 50:37.45 | 1:50.04 | 227820 | 236073 16 | 52:27.49 | 1:28.49 | 236074 | 242722 17 | 53:56.23 | 3:34.55 | 242723 | 258827 18 | 57:31.03 | 4:25.64 | 258828 | 278766 19 | 61:56.67 | 6:39.17 | 278767 | 308708
Range status and errors
Selected range
Filename C:\temp\Love, Revelry and the Dance in Mediaeval Music\CD5 - Danza\Danza.wav
Peak level 100.0 % Extraction speed 2.3 X Range quality 99.9 % Test CRC AF7A7112 Copy CRC AF7A7112 Copy OK
No errors occurred
AccurateRip summary
Track 1 accurately ripped (confidence 4) [6F678C9C] (AR v2)Track 2 accurately ripped (confidence 4) [6CE8AF46] (AR v2)Track 3 accurately ripped (confidence 4) [22625EFA] (AR v2)Track 4 accurately ripped (confidence 4) [4B0BA2AC] (AR v2)Track 5 accurately ripped (confidence 4) [07E46B8A] (AR v2)Track 6 accurately ripped (confidence 4) [D9F7318A] (AR v2)Track 7 accurately ripped (confidence 4) [C0FE1C0F] (AR v2)Track 8 accurately ripped (confidence 4) [5A52EAB4] (AR v2)Track 9 accurately ripped (confidence 4) [5CBC2F28] (AR v2)Track 10 accurately ripped (confidence 4) [3064BD40] (AR v2)Track 11 accurately ripped (confidence 4) [C4108CB8] (AR v2)Track 12 accurately ripped (confidence 4) [330F2729] (AR v2)Track 13 accurately ripped (confidence 4) [D7DF0DAF] (AR v2)Track 14 accurately ripped (confidence 4) [17D5AEC8] (AR v2)Track 15 accurately ripped (confidence 4) [E4BFF5CA] (AR v2)Track 16 accurately ripped (confidence 4) [23397AD2] (AR v2)Track 17 accurately ripped (confidence 4) [87244983] (AR v2)Track 18 accurately ripped (confidence 4) [0100CB5D] (AR v2)Track 19 accurately ripped (confidence 4) [9A02D0C4] (AR v2)
All tracks accurately ripped
End of status report
==== Log checksum BB42FF228D1FAB6E1A59A0EC79214093CCA651FAD83D17135C2F5552BBEA1958 ====

Лог создания рипа: CD6

Exact Audio Copy V1.0 beta 3 from 29. August 2011
EAC extraction logfile from 31. August 2014, 1:12
Millenarium / Llibre Vermell
Used drive : HL-DT-STDVDRAM GU70N Adapter: 0 ID: 0
Read mode : SecureUtilize accurate stream : YesDefeat audio cache : YesMake use of C2 pointers : No
Read offset correction : 48Overread into Lead-In and Lead-Out : NoFill up missing offset samples with silence : YesDelete leading and trailing silent blocks : NoNull samples used in CRC calculations : YesUsed interface : Native Win32 interface for Win NT & 2000
Used output format : User Defined EncoderSelected bitrate : 128 kBit/sQuality : HighAdd ID3 tag : NoCommand line compressor : C:\Program Files (x86)\Exact Audio Copy\Flac\flac.exeAdditional command line options : -V -8 -T "Date=%year%" -T "Genre=%genre%" %source%
TOC of the extracted CD
Track | Start | Length | Start sector | End sector --------------------------------------------------------- 1 | 0:00.00 | 1:06.68 | 0 | 5017 2 | 1:06.68 | 4:41.04 | 5018 | 26096 3 | 5:47.72 | 5:09.27 | 26097 | 49298 4 | 10:57.24 | 2:58.27 | 49299 | 62675 5 | 13:55.51 | 4:50.72 | 62676 | 84497 6 | 18:46.48 | 5:05.01 | 84498 | 107373 7 | 23:51.49 | 8:39.10 | 107374 | 146308 8 | 32:30.59 | 1:10.17 | 146309 | 151575 9 | 33:41.01 | 6:35.44 | 151576 | 181244 10 | 40:16.45 | 4:00.02 | 181245 | 199246 11 | 44:16.47 | 2:57.06 | 199247 | 212527 12 | 47:13.53 | 4:22.33 | 212528 | 232210 13 | 51:36.11 | 2:06.44 | 232211 | 241704 14 | 53:42.55 | 8:21.04 | 241705 | 279283 15 | 62:03.59 | 0:51.68 | 279284 | 283176 16 | 62:55.52 | 2:46.70 | 283177 | 295696 17 | 65:42.47 | 0:59.70 | 295697 | 300191 18 | 66:42.42 | 6:33.36 | 300192 | 329702 19 | 73:16.03 | 2:15.30 | 329703 | 339857 20 | 75:31.33 | 4:00.68 | 339858 | 357925
Range status and errors
Selected range
Filename C:\temp\Love, Revelry and the Dance in Mediaeval Music\CD6 - Llibre Vermell\Llibre Vermell.wav
Peak level 100.0 % Extraction speed 2.3 X Range quality 100.0 % Test CRC E529299E Copy CRC E529299E Copy OK
No errors occurred
AccurateRip summary
Track 1 accurately ripped (confidence 4) [9D4ADC68] (AR v2)Track 2 accurately ripped (confidence 4) [39CFB6F8] (AR v2)Track 3 accurately ripped (confidence 4) [10D2842D] (AR v2)Track 4 accurately ripped (confidence 4) [A28D4CAA] (AR v2)Track 5 accurately ripped (confidence 4) [8372F02A] (AR v2)Track 6 accurately ripped (confidence 4) [9B29C292] (AR v2)Track 7 accurately ripped (confidence 4) [C93C22EC] (AR v2)Track 8 accurately ripped (confidence 4) [6A384F64] (AR v2)Track 9 accurately ripped (confidence 4) [82D77DA0] (AR v2)Track 10 accurately ripped (confidence 4) [CF0EC52F] (AR v2)Track 11 accurately ripped (confidence 4) [034A4B5E] (AR v2)Track 12 accurately ripped (confidence 4) [9663A3AD] (AR v2)Track 13 accurately ripped (confidence 4) [FDE1A48C] (AR v2)Track 14 accurately ripped (confidence 4) [492DA373] (AR v2)Track 15 accurately ripped (confidence 4) [4B4654CA] (AR v2)Track 16 accurately ripped (confidence 4) [2F2F24D4] (AR v2)Track 17 accurately ripped (confidence 4) [357A4916] (AR v2)Track 18 accurately ripped (confidence 4) [6F3306A4] (AR v2)Track 19 accurately ripped (confidence 4) [18A80305] (AR v2)Track 20 accurately ripped (confidence 4) [543D282E] (AR v2)
All tracks accurately ripped
End of status report
==== Log checksum 1B5A40A267E4CE55EFF58C553F99B36A74EBB24787C475A833535D01D26D70B0 ====

Лог создания рипа: CD7

Exact Audio Copy V1.0 beta 3 from 29. August 2011
EAC extraction logfile from 31. August 2014, 15:38
Christophe Deslignes, Thierry Gomar / The Masters of Florentine Organetto
Used drive : HL-DT-STDVDRAM GU70N Adapter: 0 ID: 0
Read mode : SecureUtilize accurate stream : YesDefeat audio cache : YesMake use of C2 pointers : No
Read offset correction : 48Overread into Lead-In and Lead-Out : NoFill up missing offset samples with silence : YesDelete leading and trailing silent blocks : NoNull samples used in CRC calculations : YesUsed interface : Native Win32 interface for Win NT & 2000
Used output format : User Defined EncoderSelected bitrate : 128 kBit/sQuality : HighAdd ID3 tag : NoCommand line compressor : C:\Program Files (x86)\Exact Audio Copy\Flac\flac.exeAdditional command line options : -V -8 -T "Date=%year%" -T "Genre=%genre%" %source%
TOC of the extracted CD
Track | Start | Length | Start sector | End sector --------------------------------------------------------- 1 | 0:00.00 | 3:07.41 | 0 | 14065 2 | 3:07.41 | 2:47.15 | 14066 | 26605 3 | 5:54.56 | 2:12.20 | 26606 | 36525 4 | 8:07.01 | 4:27.35 | 36526 | 56585 5 | 12:34.36 | 5:20.09 | 56586 | 80594 6 | 17:54.45 | 6:28.74 | 80595 | 109768 7 | 24:23.44 | 2:27.63 | 109769 | 120856 8 | 26:51.32 | 4:09.59 | 120857 | 139590 9 | 31:01.16 | 1:56.43 | 139591 | 148333 10 | 32:57.59 | 4:23.71 | 148334 | 168129 11 | 37:21.55 | 12:59.45 | 168130 | 226599 12 | 50:21.25 | 1:46.60 | 226600 | 234609 13 | 52:08.10 | 2:37.03 | 234610 | 246387
Range status and errors
Selected range
Filename C:\temp\Love, Revelry and the Dance in Mediaeval Music\CD7 - The Masters of Florentine Organetto\The Masters of Florentine Organetto.wav
Peak level 97.8 % Extraction speed 4.9 X Range quality 99.9 % Test CRC CFB73F98 Copy CRC CFB73F98 Copy OK
No errors occurred
AccurateRip summary
Track 1 accurately ripped (confidence 4) [1E03D051] (AR v2)Track 2 accurately ripped (confidence 4) [8931F839] (AR v2)Track 3 accurately ripped (confidence 4) [A4D6A5D7] (AR v2)Track 4 accurately ripped (confidence 4) [6234571A] (AR v2)Track 5 accurately ripped (confidence 4) [61044C25] (AR v2)Track 6 accurately ripped (confidence 4) [16DE005B] (AR v2)Track 7 accurately ripped (confidence 4) [0EF7720D] (AR v2)Track 8 accurately ripped (confidence 4) [3584E997] (AR v2)Track 9 accurately ripped (confidence 4) [AFAEEDBD] (AR v2)Track 10 accurately ripped (confidence 4) [E35C573F] (AR v2)Track 11 accurately ripped (confidence 4) [66C50DF5] (AR v2)Track 12 accurately ripped (confidence 4) [275B39FD] (AR v2)Track 13 accurately ripped (confidence 4) [5908E600] (AR v2)
All tracks accurately ripped
End of status report
==== Log checksum 9D8B21751AD85AEC122249342D331D628F5B5E48C014FCC37386B9D91B231C2B ====



Показать сообщения:    

Текущее время: 07-Дек 21:25

Часовой пояс: UTC + 3


Вы не можете начинать темы
Вы не можете отвечать на сообщения
Вы не можете редактировать свои сообщения
Вы не можете удалять свои сообщения
Вы не можете голосовать в опросах
Вы не можете прикреплять файлы к сообщениям
Вы не можете скачивать файлы