(Classical) Михаил Носырев - The Song of Triumphant Love / Песнь торжествующей любви (Ольга Кондина, Анико Гиладзе, Людмила Фролкова, Владимир Вербитский) - 2000, FLAC (image+.cue) lossless


 

[Цитировать]

The Song of Triumphant Love
Жанр: Classical
Страна-производитель диска: England
Год издания диска: 2000
Издатель (лейбл): Olympia
Номер по каталогу: ocd 684
Дата записи: 1999
Аудиокодек: FLAC
Тип рипа: image+.cue
Битрейт аудио: lossless
Продолжительность: 79'02
Источник: собственный рип
Наличие сканов в содержимом раздачи: да
Треклист:
1. Prelude. Portrait of Fabio
2. Portrait of Muzio
3. Portrait of Valeria
4. Valeria - Fabio
5. Valeria - Muzio
6. Valeria - Fabio - Muzio
7. Muzio's departure
8. Finale of Act 1
9. Prelude
10. Muzio's Return
11. The Desert
12. Portrait of the Malay
13. The Whirlpool
14. Grimaces of fate
15. Coda
16. Muzio plays the violin
17. The Dream
18. Fabio
19. Finale of Act 2
20. Epilogue
21. The Song of Triumphant Love
Исполнители:
Mikhail Nosyrev - Compositor
Olga Kondina - Voice
Aniko Giladze - Violin
Ludmila Frolkova - Harp
Vladimir Verbitzky - Conducted
По одноимённому произведению И.С.Тургенева.

Лог создания рипа

Exact Audio Copy V1.0 beta 3 from 29. August 2011
Отчёт EAC об извлечении, выполненном 9. февраля 2015, 19:46
Mikhail Nosyrev / The Song of Triumphant Love
Дисковод: HL-DT-STDVDRAM GT31N Adapter: 1 ID: 0
Режим чтения : ДостоверностьИспользование точного потока : ДаОтключение кэша аудио : ДаИспользование указателей C2 : Нет
Комбинированное смещение чтения/записи : 667Способность читать области Lead-in и Lead-out : НетЗаполнение пропущенных сэмплов тишиной : ДаУдаление блоков с тишиной в начале и конце : НетПри вычислениях CRC использовались нулевые сэмплы : ДаИнтерфейс : Встроенный Win32-интерфейс для Win NT/2000
Выходной формат : Пользовательский кодировщикВыбранный битрейт : 768 kBit/sКачество : ВысокийДобавление ID3-тега : НетУтилита сжатия : C:\Program Files\Exact Audio Copy\FLAC\FLAC.EXEДополнительные параметры : -6 -V -T "ARTIST=%artist%" -T "TITLE=%title%" -T "ALBUM=%albumtitle%" -T "DATE=%year%" -T "TRACKNUMBER=%tracknr%" -T "GENRE=%genre%" -T "COMMENT=%comment%" -T "BAND=%albuminterpret%" -T "ALBUMARTIST=%albuminterpret%" -T "COMPOSER=%composer%" %haslyrics%--tag-from-file=LYRICS="%lyricsfile%"%haslyrics% -T "DISCNUMBER=%cdnumber%" -T "TOTALDISCS=%totalcds%" -T "TOTALTRACKS=%numtracks%" %hascover%--picture="%coverfile%"%hascover% %source% -o %dest%
TOC извлечённого CD
Трек | Старт | Длительность | Начальный сектор | Конечный сектор --------------------------------------------------------------------- 1 | 0:00.00 | 3:40.62 | 0 | 16561 2 | 3:40.62 | 2:06.72 | 16562 | 26083 3 | 5:47.59 | 3:30.12 | 26084 | 41845 4 | 9:17.71 | 3:28.53 | 41846 | 57498 5 | 12:46.49 | 3:58.19 | 57499 | 75367 6 | 16:44.68 | 7:41.25 | 75368 | 109967 7 | 24:26.18 | 2:15.72 | 109968 | 120164 8 | 26:42.15 | 3:42.03 | 120165 | 136817 9 | 30:24.18 | 1:51.62 | 136818 | 145204 10 | 32:16.05 | 2:26.71 | 145205 | 156225 11 | 34:43.01 | 3:00.36 | 156226 | 169761 12 | 37:43.37 | 4:24.70 | 169762 | 189631 13 | 42:08.32 | 2:31.02 | 189632 | 200958 14 | 44:39.34 | 3:23.61 | 200959 | 216244 15 | 48:03.20 | 2:54.31 | 216245 | 229325 16 | 50:57.51 | 4:32.13 | 229326 | 249738 17 | 55:29.64 | 5:38.41 | 249739 | 275129 18 | 61:08.30 | 2:57.33 | 275130 | 288437 19 | 64:05.63 | 6:02.14 | 288438 | 315601 20 | 70:08.02 | 5:48.68 | 315602 | 341769 21 | 75:56.70 | 3:03.48 | 341770 | 355542
Характеристики диапазона извлечения и сообщения об ошибках
Выбранный диапазон
Имя файла C:\Documents and Settings\Алексей\Рабочий стол\Песнь торжествующей любви (1999)\Mikhail Nosyrev - The Song of Triumphant Love.wav
Пиковый уровень 95.5 % Скорость извлечения 14.0 X Качество диапазона 100.0 % CRC теста E2ABCA2E CRC копии E2ABCA2E Копирование... OK
Ошибок не произошло
Конец отчёта

Содержание индексной карты (.CUE)

REM DISCID 3A128415REM COMMENT "ExactAudioCopy v1.0b3"PERFORMER "Mikhail Nosyrev"TITLE "The Song of Triumphant Love"FILE "Mikhail Nosyrev - The Song of Triumphant Love.flac" WAVE TRACK 01 AUDIO TITLE "1. Prelude. Portrait of Fabio" PERFORMER "Mikhail Nosyrev" INDEX 01 00:00:00 TRACK 02 AUDIO TITLE "2. Portrait of Muzio" PERFORMER "Mikhail Nosyrev" INDEX 00 03:40:59 INDEX 01 03:40:62 TRACK 03 AUDIO TITLE "3. Portrait of Valeria" PERFORMER "Mikhail Nosyrev" INDEX 00 05:47:56 INDEX 01 05:47:59 TRACK 04 AUDIO TITLE "4. Valeria - Fabio" PERFORMER "Mikhail Nosyrev" INDEX 00 09:17:68 INDEX 01 09:17:71 TRACK 05 AUDIO TITLE "5. Valeria - Muzio" PERFORMER "Mikhail Nosyrev" INDEX 00 12:46:46 INDEX 01 12:46:49 TRACK 06 AUDIO TITLE "6. Valeria - Fabio - Muzio" PERFORMER "Mikhail Nosyrev" INDEX 00 16:44:65 INDEX 01 16:44:68 TRACK 07 AUDIO TITLE "7. Muzio's departure" PERFORMER "Mikhail Nosyrev" INDEX 00 24:26:15 INDEX 01 24:26:18 TRACK 08 AUDIO TITLE "8. Finale of Act I" PERFORMER "Mikhail Nosyrev" INDEX 00 26:42:12 INDEX 01 26:42:15 TRACK 09 AUDIO TITLE "9. Prelude" PERFORMER "Mikhail Nosyrev" INDEX 00 30:24:15 INDEX 01 30:24:18 TRACK 10 AUDIO TITLE "10. Muzio;s return" PERFORMER "Mikhail Nosyrev" INDEX 00 32:16:02 INDEX 01 32:16:05 TRACK 11 AUDIO TITLE "11. The Desert" PERFORMER "Mikhail Nosyrev" INDEX 00 34:42:73 INDEX 01 34:43:01 TRACK 12 AUDIO TITLE "12. Portrait of the Malay" PERFORMER "Mikhail Nosyrev" INDEX 00 37:43:34 INDEX 01 37:43:37 TRACK 13 AUDIO TITLE "13. The Whirlpool" PERFORMER "Mikhail Nosyrev" INDEX 00 42:08:29 INDEX 01 42:08:32 TRACK 14 AUDIO TITLE "14. Grimaces of fate" PERFORMER "Mikhail Nosyrev" INDEX 00 44:39:31 INDEX 01 44:39:34 TRACK 15 AUDIO TITLE "15. Coda" PERFORMER "Mikhail Nosyrev" INDEX 00 48:03:17 INDEX 01 48:03:20 TRACK 16 AUDIO TITLE "16. Muzio plays the violin" PERFORMER "Mikhail Nosyrev" INDEX 00 50:57:48 INDEX 01 50:57:51 TRACK 17 AUDIO TITLE "17. The Dream" PERFORMER "Mikhail Nosyrev" INDEX 00 55:29:61 INDEX 01 55:29:64 TRACK 18 AUDIO TITLE "18. Valeria - Fabio" PERFORMER "Mikhail Nosyrev" INDEX 00 61:08:27 INDEX 01 61:08:30 TRACK 19 AUDIO TITLE "19. Finale of Act II" PERFORMER "Mikhail Nosyrev" INDEX 00 64:05:60 INDEX 01 64:05:63 TRACK 20 AUDIO TITLE "20. Epilogue" PERFORMER "Mikhail Nosyrev" INDEX 00 70:07:74 INDEX 01 70:08:02 TRACK 21 AUDIO TITLE "21. The Song of Triumphant Love" PERFORMER "Mikhail Nosyrev" INDEX 00 75:56:67 INDEX 01 75:56:70

Доп. информация

Nosyrev could only begin his composing career in earnest at the age of almost 30: he had been arrested at only 19 for organizing so-called "counter-revolutionary activity" and was sentenced to death. Thankfully this was commuted to ten years imprisonment, which he served in Siberia. He was not rehabilitated until after his death, when he received a posthumous acquittal. Following Olympia's highly acclaimed premiere recordings of Nosyrev's Four Symphonies on OCD 653 and OCD 660, Olympia now presents one of Nosyrev's most important works, the ballet "The Song of Triumphant Love." The first performance of the ballet took place in Voronezh, Russia in 1971 and since then the work has become one of the cornerstones of the repertoire there, with performances in no less than 23 seasons. Composed between his First and Second Symphonies, the ballet is suffused with shimmering harmonies and brilliant orchestration, reflecting the drama that is happening on stage. The work hovers in its own unique way between Scriabin and Rachmaninoff, and the result is music that, while admittedly traditional, is also unambiguously original.



Показать сообщения:    

Текущее время: 06-Дек 18:58

Часовой пояс: UTC + 3


Вы не можете начинать темы
Вы не можете отвечать на сообщения
Вы не можете редактировать свои сообщения
Вы не можете удалять свои сообщения
Вы не можете голосовать в опросах
Вы не можете прикреплять файлы к сообщениям
Вы не можете скачивать файлы