(Classical) Viardot-Garcia - Pauline Viardot-Garcia Songs (Karin Ott, Christoph Keller) - 1989, FLAC (image+.cue) lossless


 

[Цитировать]

Pauline Viardot-Garcia Songs
Жанр: Classical
Страна-производитель диска: Germany
Год издания диска: 1989
Издатель (лейбл): CPO DIGITAL RECORDING
Номер по каталогу: 999 044-2
Дата записи: 1987-1988
Аудиокодек: FLAC
Тип рипа: image+.cue
Битрейт аудио: lossless
Продолжительность: 59'12
Источник: собственный рип
Наличие сканов в содержимом раздачи: да
Треклист:
1. Madrid
2. Serenada
3. Havanaise
4. Bonjour Mon Coeur
5. Grands Oiseaux Blancs
6. La Petite Chevriere
7. La Chene Et Le Roseau
8. Chanson De La Pluie
9. L'Enfant Et La Mere
10. Desespoir
11. Adieu Les Beaux Jours
12. Scene D'Hermione
13. Seize Ans Op.50, 2
14. La Danse Op.50, 1
15. L'Oiselet Op.68, 2
16. Aime-Moi Op.33, 2
17. La Calandrina
18. L'Espoir Renait Dans Mon Ame
Исполнители:
Karin Ott – soprano
Christoph Keller - piano

Полина Мишель Фердинанд Гарсиа-Виардо

Лог создания рипа

Exact Audio Copy V1.0 beta 3 from 29. August 2011
Отчёт EAC об извлечении, выполненном 4. февраля 2015, 23:07
Pauline Viardot-Garcia / Songs
Дисковод: HL-DT-STDVDRAM GH60N Adapter: 2 ID: 1
Режим чтения : ДостоверностьИспользование точного потока : ДаОтключение кэша аудио : НетИспользование указателей C2 : Да
Коррекция смещения при чтении : 667Способность читать области Lead-in и Lead-out : НетЗаполнение пропущенных сэмплов тишиной : ДаУдаление блоков с тишиной в начале и конце : НетПри вычислениях CRC использовались нулевые сэмплы : ДаИнтерфейс : Встроенный Win32-интерфейс для Win NT/2000
Выходной формат : Пользовательский кодировщикВыбранный битрейт : 896 kBit/sКачество : ВысокийДобавление ID3-тега : НетУтилита сжатия : C:\Program Files\Exact Audio Copy\FLAC\FLAC.EXEДополнительные параметры : -6 -V -T "ARTIST=%artist%" -T "TITLE=%title%" -T "ALBUM=%albumtitle%" -T "DATE=%year%" -T "TRACKNUMBER=%tracknr%" -T "GENRE=%genre%" -T "COMMENT=%comment%" -T "BAND=%albuminterpret%" -T "ALBUMARTIST=%albuminterpret%" -T "COMPOSER=%composer%" %haslyrics%--tag-from-file=LYRICS="%lyricsfile%"%haslyrics% -T "DISCNUMBER=%cdnumber%" -T "TOTALDISCS=%totalcds%" -T "TOTALTRACKS=%numtracks%" %hascover%--picture="%coverfile%"%hascover% %source% -o %dest%
TOC извлечённого CD
Трек | Старт | Длительность | Начальный сектор | Конечный сектор --------------------------------------------------------------------- 1 | 0:00.50 | 2:16.72 | 50 | 10321 2 | 2:17.47 | 1:40.03 | 10322 | 17824 3 | 3:57.50 | 4:04.00 | 17825 | 36124 4 | 8:01.50 | 1:13.00 | 36125 | 41599 5 | 9:14.50 | 3:10.00 | 41600 | 55849 6 | 12:24.50 | 2:45.00 | 55850 | 68224 7 | 15:09.50 | 4:07.02 | 68225 | 86751 8 | 19:16.52 | 2:47.73 | 86752 | 99349 9 | 22:04.50 | 2:32.00 | 99350 | 110749 10 | 24:36.50 | 2:02.00 | 110750 | 119899 11 | 26:38.50 | 3:20.00 | 119900 | 134899 12 | 29:58.50 | 6:27.02 | 134900 | 163926 13 | 36:25.52 | 3:38.73 | 163927 | 180349 14 | 40:04.50 | 3:01.00 | 180350 | 193924 15 | 43:05.50 | 3:12.00 | 193925 | 208324 16 | 46:17.50 | 2:21.02 | 208325 | 218901 17 | 48:38.52 | 5:03.70 | 218902 | 241696 18 | 53:42.47 | 5:29.70 | 241697 | 266441
Характеристики диапазона извлечения и сообщения об ошибках
Выбранный диапазон
Имя файла C:\Documents and Settings\Алексей\Рабочий стол\Pauline Viardot-Garcia - Songs (1989)\Pauline Viardot-Garcia - Songs.wav
Пиковый уровень 91.1 % Скорость извлечения 22.9 X CRC теста 2ED5C307 CRC копии 2ED5C307 Копирование завершено
Ошибок не произошло
Конец отчёта

Содержание индексной карты (.CUE)

REM DISCID FC0DE012REM COMMENT "ExactAudioCopy v1.0b3"PERFORMER "Pauline Viardot-Garcia"TITLE "Songs"FILE "Pauline Viardot-Garcia - Songs.flac" WAVE TRACK 01 AUDIO TITLE "1. Madrid" PERFORMER "Pauline Viardot-Garcia" INDEX 00 00:00:00 INDEX 01 00:00:50 TRACK 02 AUDIO TITLE "2. Serenade" PERFORMER "Pauline Viardot-Garcia" INDEX 00 02:17:19 INDEX 01 02:17:47 TRACK 03 AUDIO TITLE "3. Havanaise" PERFORMER "Pauline Viardot-Garcia" INDEX 00 03:56:26 INDEX 01 03:57:50 TRACK 04 AUDIO TITLE "4. Bonjour mon coeur" PERFORMER "Pauline Viardot-Garcia" INDEX 00 07:59:36 INDEX 01 08:01:50 TRACK 05 AUDIO TITLE "5. Grands Oiseaux Blancs" PERFORMER "Pauline Viardot-Garcia" INDEX 00 09:13:16 INDEX 01 09:14:50 TRACK 06 AUDIO TITLE "6. La Pehte Chevriere" PERFORMER "Pauline Viardot-Garcia" INDEX 00 12:21:54 INDEX 01 12:24:50 TRACK 07 AUDIO TITLE "7. La Chene et le Roseau" PERFORMER "Pauline Viardot-Garcia" INDEX 00 15:07:69 INDEX 01 15:09:50 TRACK 08 AUDIO TITLE "8. Chanson de la Pluie" PERFORMER "Pauline Viardot-Garcia" INDEX 00 19:15:05 INDEX 01 19:16:52 TRACK 09 AUDIO TITLE "9. L'Enfant et la Mere" PERFORMER "Pauline Viardot-Garcia" INDEX 00 22:02:36 INDEX 01 22:04:50 TRACK 10 AUDIO TITLE "10. Desespair" PERFORMER "Pauline Viardot-Garcia" INDEX 00 24:35:10 INDEX 01 24:36:50 TRACK 11 AUDIO TITLE "11. Adieu les Beaux Jours" PERFORMER "Pauline Viardot-Garcia" INDEX 00 26:37:17 INDEX 01 26:38:50 TRACK 12 AUDIO TITLE "12. Scene d'Hermione" PERFORMER "Pauline Viardot-Garcia" INDEX 00 29:58:02 INDEX 01 29:58:50 TRACK 13 AUDIO TITLE "13. Seize Ans" PERFORMER "Pauline Viardot-Garcia" INDEX 00 36:20:71 INDEX 01 36:25:52 TRACK 14 AUDIO TITLE "14. La Danse" PERFORMER "Pauline Viardot-Garcia" INDEX 00 40:04:44 INDEX 01 40:04:50 TRACK 15 AUDIO TITLE "15. L'Oiselet" PERFORMER "Pauline Viardot-Garcia" INDEX 00 43:04:31 INDEX 01 43:05:50 TRACK 16 AUDIO TITLE "16. Aime-moi" PERFORMER "Pauline Viardot-Garcia" INDEX 00 46:16:03 INDEX 01 46:17:50 TRACK 17 AUDIO TITLE "17. La Calandrina" PERFORMER "Pauline Viardot-Garcia" INDEX 00 48:37:16 INDEX 01 48:38:52 TRACK 18 AUDIO TITLE "18. L'Espoir Renaif dans mon Ame" PERFORMER "Pauline Viardot-Garcia" INDEX 00 53:38:04 INDEX 01 53:42:47

Ещё диски с произведениями Полины Виардо

"Полина Виардо и Друзья" (2007)
http://rutracker.org/forum/viewtopic.php?t=4524431
"Полина Виардо - Русские мелодии" (2012)
http://rutracker.org/forum/viewtopic.php?t=4525008
"Виардо: Мазурки Шопена и другие мелодии" (2014)
http://rutracker.org/forum/viewtopic.php?t=4928872
"Полина Виардо - Золушка" (2000)
http://rutracker.org/forum/viewtopic.php?t=4525490
"Полина Виардо-Гарсия - Избранные композиции" (2004)
http://rutracker.org/forum/viewtopic.php?t=4523925
"Полина Виардо-Гарсия - Избранные композиции" (2000)
http://rutracker.org/forum/viewtopic.php?t=4523507
"Полина Виардо - Песнь торжествующей любви" (2009)
http://rutracker.org/forum/viewtopic.php?t=4524242



Показать сообщения:    

Текущее время: 09-Дек 16:31

Часовой пояс: UTC + 3


Вы не можете начинать темы
Вы не можете отвечать на сообщения
Вы не можете редактировать свои сообщения
Вы не можете удалять свои сообщения
Вы не можете голосовать в опросах
Вы не можете прикреплять файлы к сообщениям
Вы не можете скачивать файлы