(Classical) John Dowland - The Art of Melancholy: songs - Iestyn Davies, Thomas Dunford - 2014, FLAC (image+.cue) lossless


 

[Цитировать]

John Dowland - The Art of Melancholy - Iestyn Davies, Thomas Dunford
Жанр: Classical
Страна-производитель диска: UK
Год издания диска: 2014
Издатель (лейбл): Hyperion
Номер по каталогу: CDA68007
Дата записи: 2013
Аудиокодек: FLAC
Тип рипа: image+.cue
Битрейт аудио: lossless
Продолжительность: 76:33
Источник: собственный рип
Наличие сканов в содержимом раздачи: да
Треклист:
John Dowland (1563-1626)
[1] Sorrow, Stay, Lend True Repentant Tears
[2] Come Again, Sweet Love Doth Now Invite
[3] Go, Crystal Tears
[4] Mrs Winter's Jump
[5] I Saw My Lady Weep
[6] Flow, My Tears, Fall From Your Springs
[7] Can She Excuse My Wrongs?
[8] Behold a Wonder Here
[9] Semper Dowland Semper Dolens
[10] In Darkness Let Me Dwell
[11] Time Stands Still
[12] All Ye Whom Love or Fortune Hath Betrayed
[13] Say, Love, If Ever Thou Didst Find
[14] Lachrimae
[15] Come Away, Come Sweet Love
[16] Shall I Strive With Words To Move?
[17] Burst Forth, My Tears
[18] Fortune My Foe
[19] Come, Heavy Sleep
[20] Now, Oh Now I Needs Must Part - The Frog Galliard
Исполнители:
Iestyn Davies countertenor
Thomas Dunford lute

Лог создания рипа

Exact Audio Copy V1.0 beta 3 from 29. August 2011
EAC extraction logfile from 30. October 2014, 1:51
Iestyn Davies, Thomas Dunford / Dowland - The Art of Melancholy
Used drive : HL-DT-STDVDRAM GU70N Adapter: 0 ID: 0
Read mode : SecureUtilize accurate stream : YesDefeat audio cache : YesMake use of C2 pointers : No
Read offset correction : 48Overread into Lead-In and Lead-Out : NoFill up missing offset samples with silence : YesDelete leading and trailing silent blocks : NoNull samples used in CRC calculations : YesUsed interface : Native Win32 interface for Win NT & 2000
Used output format : User Defined EncoderSelected bitrate : 128 kBit/sQuality : HighAdd ID3 tag : NoCommand line compressor : C:\Program Files (x86)\Exact Audio Copy\Flac\flac.exeAdditional command line options : -V -8 -T "Date=%year%" -T "Genre=%genre%" %source%
TOC of the extracted CD
Track | Start | Length | Start sector | End sector --------------------------------------------------------- 1 | 0:00.00 | 3:08.08 | 0 | 14107 2 | 3:08.08 | 4:15.57 | 14108 | 33289 3 | 7:23.65 | 3:18.61 | 33290 | 48200 4 | 10:42.51 | 0:48.08 | 48201 | 51808 5 | 11:30.59 | 5:42.38 | 51809 | 77496 6 | 17:13.22 | 4:45.36 | 77497 | 98907 7 | 21:58.58 | 2:23.12 | 98908 | 109644 8 | 24:21.70 | 3:03.47 | 109645 | 123416 9 | 27:25.42 | 7:01.41 | 123417 | 155032 10 | 34:27.08 | 3:52.18 | 155033 | 172450 11 | 38:19.26 | 4:04.68 | 172451 | 190818 12 | 42:24.19 | 4:28.66 | 190819 | 210984 13 | 46:53.10 | 2:00.63 | 210985 | 220047 14 | 48:53.73 | 5:37.29 | 220048 | 245351 15 | 54:31.27 | 2:04.40 | 245352 | 254691 16 | 56:35.67 | 2:00.42 | 254692 | 263733 17 | 58:36.34 | 4:53.44 | 263734 | 285752 18 | 63:30.03 | 2:47.15 | 285753 | 298292 19 | 66:17.18 | 3:55.18 | 298293 | 315935 20 | 70:12.36 | 6:18.41 | 315936 | 344326
Range status and errors
Selected range
Filename C:\temp\CDA68007 - Dowland - The Art of Melancholy (Davies, Dunford - HYPERION)\Dowland - The Art of Melancholy.wav
Peak level 97.0 % Extraction speed 2.3 X Range quality 100.0 % Test CRC F245FD04 Copy CRC F245FD04 Copy OK
No errors occurred
AccurateRip summary
Track 1 not present in databaseTrack 2 not present in databaseTrack 3 not present in databaseTrack 4 not present in databaseTrack 5 not present in databaseTrack 6 not present in databaseTrack 7 not present in databaseTrack 8 not present in databaseTrack 9 not present in databaseTrack 10 not present in databaseTrack 11 not present in databaseTrack 12 not present in databaseTrack 13 not present in databaseTrack 14 not present in databaseTrack 15 not present in databaseTrack 16 not present in databaseTrack 17 not present in databaseTrack 18 not present in databaseTrack 19 not present in databaseTrack 20 not present in database
None of the tracks are present in the AccurateRip database
End of status report
==== Log checksum AF3C7659323E5F696BD936B45DE2706EC495A2363B2930495F34D74B44D9BC68 ====



Показать сообщения:    

Текущее время: 10-Дек 02:16

Часовой пояс: UTC + 3


Вы не можете начинать темы
Вы не можете отвечать на сообщения
Вы не можете редактировать свои сообщения
Вы не можете удалять свои сообщения
Вы не можете голосовать в опросах
Вы не можете прикреплять файлы к сообщениям
Вы не можете скачивать файлы