(Vocal) Русские вальсы и романсы - Николай Копылов и Оркестр штаба Ленинградского Военного Округа под управлением Николая Ущаповского - 2003, FLAC (image+.cue) lossless


 

[Цитировать]

Русские вальсы и романсы
Николай Копылов и Оркестр штаба Ленинградского Военного Округа

Жанр: Vocal
Страна-производитель диска: Россия
Год издания диска: 2003
Издатель (лейбл): Русская Лира
Номер по каталогу: RLCD 005
Дата записи: 2003
Аудиокодек: FLAC
Тип рипа: image+.cue
Битрейт аудио: lossless
Продолжительность: 1:06:14
Источник: собственный рип
Наличие сканов в содержимом раздачи: да
Треклист:
01. Вальс "Осенний сон" (А. Джойс)
02. "Бубенцы" (А. Кусиков - А.Бакалейников)
03. "Я встретил Вас..." (Ф.Тютчев - музыка неизвестного автора)
04. "Не тверди..." (слова неизвестного автора - Я.Пригожий)
05. "Очи чёрные..." (Е.Гребенка - музыка неизвестного автора)
06. Вальс "Воспоминание" (А.Джойс)
07. "Налей бокал" (слова и музыка неизвестного автора)
08. "Хризантемы" (В.Шумской - Н.Харито)
09. "Ямщик, не гони лошадей..." (Н.Риттер - Я.Фельдман)
10. "Нет, не тебя так пылко я люблю" (М.Лермонтов - М.Шишкин)
11. Вальс "Голубая ночь" (В.Агапкин)
12. "Гори, гори моя звезда..." (В.Луевский - П.Булахов)
13. "Ночь светла" (М.Языков - М.Шишкин)
14. Вальс "В городском саду" (М.Блантер)
15. "Дорогой длинною..." (К.Подревский - Б.Фомин)
16. "Две розы" (П.Герман - Д.Покрасс)
17. "Что так скучно" (слова и музыка неизвестного автора)
18. Вальс “Утро в Финляндии” (Ф.Мальцев)
Исполнители:
Солист - Заслуженный артист Российской Федерации Николай Копылов
Дирижер - Заслуженный артист России полковник Николай Ущаповский

Лог создания рипа

Exact Audio Copy V1.0 beta 3 from 29. August 2011
Отчёт EAC об извлечении, выполненном 18. января 2015, 20:28
Н.Копылов, Н.Ущаповский / Русские вальсы и романсы
Дисковод: _NEC DVD_RW ND-3500AG Adapter: 0 ID: 0
Режим чтения : ДостоверностьИспользование точного потока : ДаОтключение кэша аудио : ДаИспользование указателей C2 : Нет
Коррекция смещения при чтении : 48Способность читать области Lead-in и Lead-out : НетЗаполнение пропущенных сэмплов тишиной : ДаУдаление блоков с тишиной в начале и конце : НетПри вычислениях CRC использовались нулевые сэмплы : ДаИнтерфейс : Встроенный Win32-интерфейс для Win NT/2000
Выходной формат : Внутренние WAV-операцииФормат сэмплов : 44.100 Гц; 16 бит; стерео
TOC извлечённого CD
Трек | Старт | Длительность | Начальный сектор | Конечный сектор --------------------------------------------------------------------- 1 | 0:00.00 | 5:03.62 | 0 | 22786 2 | 5:03.62 | 3:12.07 | 22787 | 37193 3 | 8:15.69 | 4:12.07 | 37194 | 56100 4 | 12:28.01 | 2:21.45 | 56101 | 66720 5 | 14:49.46 | 3:14.46 | 66721 | 81316 6 | 18:04.17 | 4:10.08 | 81317 | 100074 7 | 22:14.25 | 2:28.09 | 100075 | 111183 8 | 24:42.34 | 3:19.43 | 111184 | 126151 9 | 28:02.02 | 4:16.09 | 126152 | 145360 10 | 32:18.11 | 3:08.45 | 145361 | 159505 11 | 35:26.56 | 3:19.07 | 159506 | 174437 12 | 38:45.63 | 3:50.44 | 174438 | 191731 13 | 42:36.32 | 2:51.59 | 191732 | 204615 14 | 45:28.16 | 4:54.56 | 204616 | 226721 15 | 50:22.72 | 2:57.08 | 226722 | 240004 16 | 53:20.05 | 3:52.57 | 240005 | 257461 17 | 57:12.62 | 3:47.07 | 257462 | 274493 18 | 60:59.69 | 5:14.30 | 274494 | 298073
Характеристики диапазона извлечения и сообщения об ошибках
Выбранный диапазон
Имя файла D:\Музыка\Н.Копылов, Н.Ущаповский - Русские вальсы и романсы.wav
Пиковый уровень 100.0 % Скорость извлечения 7.0 X Качество диапазона 99.9 % CRC теста 8BAE1D54 CRC копии 8BAE1D54 Копирование... OK
Ошибок не произошло
AccurateRip: сводка
Трек 1 отсутствует в базе данныхТрек 2 отсутствует в базе данныхТрек 3 отсутствует в базе данныхТрек 4 отсутствует в базе данныхТрек 5 отсутствует в базе данныхТрек 6 отсутствует в базе данныхТрек 7 отсутствует в базе данныхТрек 8 отсутствует в базе данныхТрек 9 отсутствует в базе данныхТрек 10 отсутствует в базе данныхТрек 11 отсутствует в базе данныхТрек 12 отсутствует в базе данныхТрек 13 отсутствует в базе данныхТрек 14 отсутствует в базе данныхТрек 15 отсутствует в базе данныхТрек 16 отсутствует в базе данныхТрек 17 отсутствует в базе данныхТрек 18 отсутствует в базе данных
Ни одного трека нет в базе AccurateRip
Конец отчёта

Содержание индексной карты (.CUE)

REM GENRE ClassicalREM DATE 2003REM DISCID F30F8612REM COMMENT "ExactAudioCopy v1.0b3"PERFORMER "Н.Копылов, Н.Ущаповский"TITLE "Русские вальсы и романсы"FILE "Н.Копылов, Н.Ущаповский - Русские вальсы и романсы.flac" WAVE TRACK 01 AUDIO TITLE "Вальс 'Осенний сон' (А. Джойс)" PERFORMER "Н.Копылов, Н.Ущаповский" INDEX 01 00:00:00 TRACK 02 AUDIO TITLE "'Бубенцы' (А. Кусиков - А.Бакалейников)" PERFORMER "Н.Копылов, Н.Ущаповский" INDEX 01 05:03:62 TRACK 03 AUDIO TITLE "'Я встретил Вас...' (Ф.Тютчев - музыка неизвестного автора)" PERFORMER "Н.Копылов, Н.Ущаповский" INDEX 01 08:15:69 TRACK 04 AUDIO TITLE "'Не тверди...' (слова неизвестного автора - Я.Пригожий)" PERFORMER "Н.Копылов, Н.Ущаповский" INDEX 01 12:28:01 TRACK 05 AUDIO TITLE "'Очи черные...' (Е.Гребенка - музыка неизвестного автора)" PERFORMER "Н.Копылов, Н.Ущаповский" INDEX 01 14:49:46 TRACK 06 AUDIO TITLE "Вальс 'Воспоминание' (А.Джойс)" PERFORMER "Н.Копылов, Н.Ущаповский" INDEX 01 18:04:17 TRACK 07 AUDIO TITLE "'Налей бокал' (слова и музыка неизвестного автора)" PERFORMER "Н.Копылов, Н.Ущаповский" INDEX 01 22:14:25 TRACK 08 AUDIO TITLE "'Хризантемы' (В.Шумской - Н.Харито)" PERFORMER "Н.Копылов, Н.Ущаповский" INDEX 01 24:42:34 TRACK 09 AUDIO TITLE "'Ямщик, не гони лошадей...' (Н.Риттер - Я.Фельдман)" PERFORMER "Н.Копылов, Н.Ущаповский" INDEX 01 28:02:02 TRACK 10 AUDIO TITLE "'Нет, не тебя так пылко я люблю' (М.Лермонтов - М.Шишкин)" PERFORMER "Н.Копылов, Н.Ущаповский" INDEX 01 32:18:11 TRACK 11 AUDIO TITLE "Вальс 'Голубая ночь' (В.Агапкин)" PERFORMER "Н.Копылов, Н.Ущаповский" INDEX 01 35:26:56 TRACK 12 AUDIO TITLE "'Гори, гори моя звезда...' (В.Луевский - П.Булахов)" PERFORMER "Н.Копылов, Н.Ущаповский" INDEX 01 38:45:63 TRACK 13 AUDIO TITLE "'Ночь светла' (М.Языков - М.Шишкин)" PERFORMER "Н.Копылов, Н.Ущаповский" INDEX 01 42:36:32 TRACK 14 AUDIO TITLE "Вальс 'В городском саду' (М.Блантер)" PERFORMER "Н.Копылов, Н.Ущаповский" INDEX 01 45:28:16 TRACK 15 AUDIO TITLE "'Дорогой длинною...' (К.Подревский - Б.Фомин)" PERFORMER "Н.Копылов, Н.Ущаповский" INDEX 01 50:22:72 TRACK 16 AUDIO TITLE "'Две розы' (П.Герман - Д.Покрасс)" PERFORMER "Н.Копылов, Н.Ущаповский" INDEX 01 53:20:05 TRACK 17 AUDIO TITLE "'Что так скучно' (слова и музыка неизвестного автора)" PERFORMER "Н.Копылов, Н.Ущаповский" INDEX 01 57:12:62 TRACK 18 AUDIO TITLE "Вальс “Утро в Филяндии” (Ф.Мальцев)" PERFORMER "Н.Копылов, Н.Ущаповский" INDEX 01 60:59:69

Доп. информация

Русский военный духовой оркестр. Его история начинается в далёком прошлом. Уже в Ипатьевскойлетописи 1151 года можно прочесть: “В трубы вструбиша, полцы же начата доспевати”. Многочисленныеупоминания о военной музыке встречаются во многих русских летописях - в “Слове0 полку Игореве” (1185), в Суздальской летописи (1216), в Никоновской летописи (1219), идр. К тому же времени относятся изображения труб в древнерусских письменных и художественныхпамятниках: так, например, на образе Знамения (ок.1169), находящемся в иконостасе Знаменскогособора в Новгороде, среди нарисованных воинов-суздальцев присутствуют четверо пеших трубачей спрямыми трубами. Военные походы Ивана Грозного сопровождались “игрецами”: “Сам же государь отвеликии радости повеле в сурны играти в ратные и в трубы трубити”. От этого времени и вплоть доконца XVII века сведения о военной музыке постоянно присутствуют в исторических документах ивоспоминаниях.Новая страница в истории военных оркестров в России открылась с реформами Петра I. 19 февраля1711 года царским указом впервые были утверждены штаты военных оркестров. Так, в штатеАдмиралтейского батальона в 1714 году состояло 7 гобоистов, 10 барабанщиков и “для науки в гобои” -1 человек. Пётр I ввёл трубачей на флоте, лично им было составлено Положение для трубачей илитаврщиков морской или корабельной музыки флота и адмиралтейств Петербурга, Архангельска иРевеля. Военная музыка занимает всё большее место на торжественных празднествах, посвящённыхпобедам русского оружия: в честь взятия Шлиссельбурга (1702), в честь победы под Полтавой (1709),в честь заключения Ништадского мира (1721). К этому же времени относятся первые упоминания овыступлениях военных оркестров в парках. Камер-юнкер герцога голштинского Берхгольц, послепосещения адмирала Апраксина описывает в своём дневнике: “Гуляя по саду, слушал в аллеях музыкуна трубах и валторнах, которая шла превосходно, потому что один из трубачей, говорят, лучший вовсём Петербурге”. Участие военной музыки стало обычным на ассамблеях, в праздничные дни, привстрече Нового года, на маскарадах и свадьбах, на похоронах, и просто во время прогулок. Ноглавное было в том, что именно при Петре I военные оркестры стали неотъемлемой, “штатной”составной частью полков и батальонов. Впервые в полках были учреждены школы, готовящие военныхмузыкантов.Появление в 1751 году роговой музыки нашло своё отражение и в армии: роговые оркестры были вПреображенском, Егерском и Конногвардейском полках. В свою очередь развитие военной музыкиповысило спрос на музыкальные инструменты, причём удовлетворять этот спрос взялись, наряду синостранными, и отечественные мастера. К 1744 году относится основание первой русской фабрикимузыкальных инструментов. В царствование Екатерины Великой военные оркестры разрослись иумножились: в некоторых полках были заведены оркестры во сто и более человек.При Александре I это развитие продолжилось с новой силой. В 1803 году в Кронштадте былавозрождена “Трубачская школа” (иногда называемая “Балтийской музыкантской школой”), котораяготовила музыкантов для двух флотских дивизий, а также направляла их в другие порты. Впоследующие годы организуется “музыкальная часть” на Чёрном море (1805), формируются штатные хорымузыки в Ревеле (1820), Петербурге, Свеаборге и Архангельске (1823). С 1814 года военные оркестрыПетербурга устраивают в пользу инвалидов Отечественной войны так называемые “инвалидныеконцерты”, ставшие традиционными и ежегодными. С 20-х годов XIX века полковая музыка всё чащеприменяется на балах и маскарадах. В эти же годы стремительно идут изменения в конструкциидуховых инструментов, связанные с изобретением клапанного механизма. Необычайно возросшиетехнические возможности медных музыкальных инструментов позволили М.И.Глинке ввести в партитурысвоих опер сценический духовой оркестр - банду. Особо следует подчеркнуть огромное значениеплодотворной десятилетней деятельности Н.А.Римского-Корсакова на посту инспектора музыкантскиххоров Морского ведомства (1873 - 1884). Он участвовал в разработке Положения о строевых ипортовых хорах музыки (1874), по его инициативе была создана Музыкантская школа Балтийскогофлота, им же был улучшен репертуар и были организованы концерты соединённых хоров-оркестровМорского ведомства в Кронштадте
Николай КОПЫЛОВ Заслуженный артист Российской Федерации.Ведущий солист Санкт-Петербургского Государственного Академического театра оперы и балета им.М.П.Мусоргского обладает редким по красоте и тембру лирическим баритоном. Его талант, вокально-сценическое мастерство, а также высочайший профессиональный уровень и яркая индивидуальностьпозволяют исполнять практически все ведущие баритоновые партии, среди которых: Онегин, Фигаро,Риголетто, Князь Игорь и многие другие.Огромный успех сопутствовал Николаю Копылову в гастрольных поездках, его прекрасный голос звучална лучших оперных сценах мира и Европы. Однако его возможности не ограничиваются оперным жанром.Богатый внутренний мир певца определяет и другие музыкальные пристрастия, такие как камернаямузыка, народные песни и особенно - старинный русский романс. На диске, который вы держите вруках, певец исполняет широко известные и любимые романсы в сопровождении оркестра ЛенинградскогоВоенного округа, что является примером удачного и смелого эксперимента.
ЛАУРЕАТ ВСЕАРМЕЙСКИХ КОНКУРСОВ ОРКЕСТР ШТАБА ЛЕНИНГРАДСКОГО ВОЕННОГО ОКРУГАЗаслуженный артист России полковник Николай УщаповскийОркестр штаба Ленинградского военного округа - приемник традиций одного из старейших военныхоркестров России. Свою историю он ведет с 1882 года, когда Императором Александром III былподписан Указ об учреждении Придворного оркестра, в состав которого входили симфонический идуховой оркестры. Первый концерт Придворного духового оркестра состоялся 31 августа 1882 года.В годы Второй Мировой войны оркестр находился в осажденном городе, и принимал участие в первомисполнении 7-й "Ленинградской" симфонии Дмитрия Шостаковича в 1942 году.



Показать сообщения:    

Текущее время: 07-Дек 11:37

Часовой пояс: UTC + 3


Вы не можете начинать темы
Вы не можете отвечать на сообщения
Вы не можете редактировать свои сообщения
Вы не можете удалять свои сообщения
Вы не можете голосовать в опросах
Вы не можете прикреплять файлы к сообщениям
Вы не можете скачивать файлы