(Classical) Mozart - Lieder (Barbara Bonney, Geoffrey Parsons) - 1992, FLAC (tracks+.cue) lossless


 

[Цитировать]

Mozart - Lieder (Barbara Bonney, Geoffrey Parsons)
Жанр: Classical
Год издания диска: 1992
Издатель (лейбл): Teldec
Номер по каталогу: 246334
Аудиокодек: FLAC
Тип рипа: tracks+.cue
Битрейт аудио: lossless
Продолжительность: 62’43"
Источник: собственный рип
Наличие сканов в содержимом раздачи: да
Исполнители:
Barbara Bonney, Soprano
Geoffrey Parsons, Piano
Треклист:
01. An die Freude (03:38)
02. Ridente la calma (03:48)
03. Oiseaux, si tous les ans (01:39)
04. Dans un bois solitaire (03:10)
05. O Gotteslamm (01:56)
06. Komm, liebe Zither (01:52)
07. Sei du mein Trost (03:24)
08. Der Zauberer (02:12)
09. Die Zufriedenheit (02:54)
10. Das Veilchen (02:43)
11. Lied der Freiheit (02:47)
12. Die Verschweigung (04:30)
13. Lied der Trennung (05:03)
14. Als Luise die Briefe... (01:48)
15. Abendempfindung an Laura (05:31)
16. An Chloe (02:47)
17. Das Traumbild (03:08)
18. Sehnsucht nach dem Fruehlinge (02:11)
19. Der Fruehling (02:10)
20. Das Kinderspeil (01:52)
21. Maenner suche stes zu naschen (02:00)
22. Un moto di gioia (01:39)

LOG EAC CD:

Exact Audio Copy V1.0 beta 3 from 29. August 2011
EAC extraction logfile from 10. January 2015, 22:05
Barbara Bonney / Mozart: Lieder
Used drive : PIONEER DVD-RW DVR-221L Adapter: 2 ID: 0
Read mode : SecureUtilize accurate stream : YesDefeat audio cache : YesMake use of C2 pointers : No
Read offset correction : 6Overread into Lead-In and Lead-Out : NoFill up missing offset samples with silence : YesDelete leading and trailing silent blocks : NoNull samples used in CRC calculations : YesUsed interface : Installed external ASPI interfaceGap handling : Appended to previous track
Used output format : User Defined EncoderSelected bitrate : 768 kBit/sQuality : HighAdd ID3 tag : NoCommand line compressor : C:\Program Files\Exact Audio Copy\Flac\flac.exeAdditional command line options : -6 -V -T "ARTIST=%artist%" -T "TITLE=%title%" -T "ALBUM=%albumtitle%" -T "DATE=%year%" -T "TRACKNUMBER=%tracknr%" -T "GENRE=%genre%" -T "COMMENT=%comment%" -T "ALBUMARTIST=%albuminterpret%" -T "COMPOSER=%composer%" -T "DISCNUMBER=%cdnumber%" -T "TOTALDISCS=%totalcds%" -T "TOTALTRACKS=%numtracks%" %source% -o %dest%
TOC of the extracted CD
Track | Start | Length | Start sector | End sector --------------------------------------------------------- 1 | 0:00.32 | 3:38.33 | 32 | 16414 2 | 3:38.65 | 3:48.07 | 16415 | 33521 3 | 7:26.72 | 1:39.05 | 33522 | 40951 4 | 9:06.02 | 3:10.35 | 40952 | 55236 5 | 12:16.37 | 1:56.20 | 55237 | 63956 6 | 14:12.57 | 1:52.13 | 63957 | 72369 7 | 16:04.70 | 3:24.10 | 72370 | 87679 8 | 19:29.05 | 2:12.25 | 87680 | 97604 9 | 21:41.30 | 2:54.37 | 97605 | 110691 10 | 24:35.67 | 2:43.20 | 110692 | 122936 11 | 27:19.12 | 2:46.60 | 122937 | 135446 12 | 30:05.72 | 4:29.68 | 135447 | 155689 13 | 34:35.65 | 5:03.35 | 155690 | 178449 14 | 39:39.25 | 1:47.67 | 178450 | 186541 15 | 41:27.17 | 5:30.55 | 186542 | 211346 16 | 46:57.72 | 2:46.63 | 211347 | 223859 17 | 49:44.60 | 3:07.42 | 223860 | 237926 18 | 52:52.27 | 2:10.40 | 237927 | 247716 19 | 55:02.67 | 2:09.38 | 247717 | 257429 20 | 57:12.30 | 1:52.05 | 257430 | 265834 21 | 59:04.35 | 2:00.00 | 265835 | 274834 22 | 61:04.35 | 1:39.30 | 274835 | 282289
Track 1
Filename D:\EAC\01 - An die Freude.wav
Pre-gap length 0:00:02.32
Peak level 85.9 % Extraction speed 3.9 X Track quality 99.9 % Test CRC 51241CB9 Copy CRC 51241CB9 Accurately ripped (confidence 7) [D0817282] (AR v2) Copy OK
Track 2
Filename D:\EAC\02 - Ridente la calma.wav
Peak level 92.2 % Extraction speed 4.3 X Track quality 99.9 % Test CRC 4571944A Copy CRC 4571944A Accurately ripped (confidence 7) [68B4D5F4] (AR v2) Copy OK
Track 3
Filename D:\EAC\03 - Oiseaux, si tous les ans.wav
Peak level 70.7 % Extraction speed 4.8 X Track quality 100.0 % Test CRC 83908355 Copy CRC 83908355 Accurately ripped (confidence 7) [F3DD91DE] (AR v2) Copy OK
Track 4
Filename D:\EAC\04 - Dans un bois solitaire.wav
Peak level 89.1 % Extraction speed 5.7 X Track quality 100.0 % Test CRC 02A07C7C Copy CRC 02A07C7C Accurately ripped (confidence 7) [DADFD893] (AR v2) Copy OK
Track 5
Filename D:\EAC\05 - O Gotteslamm.wav
Peak level 37.1 % Extraction speed 5.4 X Track quality 100.0 % Test CRC 46A82D60 Copy CRC 46A82D60 Accurately ripped (confidence 7) [09EC7498] (AR v2) Copy OK
Track 6
Filename D:\EAC\06 - Komm, liebe Zither.wav
Peak level 58.1 % Extraction speed 5.4 X Track quality 100.0 % Test CRC 73C9E830 Copy CRC 73C9E830 Accurately ripped (confidence 6) [2B436A13] (AR v2) Copy OK
Track 7
Filename D:\EAC\07 - Sei du mein Trost.wav
Peak level 71.2 % Extraction speed 6.5 X Track quality 100.0 % Test CRC 9BA1A713 Copy CRC 9BA1A713 Accurately ripped (confidence 6) [383D5DB3] (AR v2) Copy OK
Track 8
Filename D:\EAC\08 - Der Zauberer.wav
Peak level 88.0 % Extraction speed 6.1 X Track quality 100.0 % Test CRC A7356A60 Copy CRC A7356A60 Accurately ripped (confidence 6) [BA673D51] (AR v2) Copy OK
Track 9
Filename D:\EAC\09 - Die Zufriedenheit.wav
Peak level 69.9 % Extraction speed 6.6 X Track quality 100.0 % Test CRC A7A3F79F Copy CRC A7A3F79F Accurately ripped (confidence 7) [478EB137] (AR v2) Copy OK
Track 10
Filename D:\EAC\10 - Das Veilchen.wav
Peak level 88.4 % Extraction speed 6.9 X Track quality 100.0 % Test CRC F4B7A089 Copy CRC F4B7A089 Accurately ripped (confidence 7) [0863DAE6] (AR v2) Copy OK
Track 11
Filename D:\EAC\11 - Lied der Freiheit.wav
Peak level 77.4 % Extraction speed 7.1 X Track quality 100.0 % Test CRC 4789DEA7 Copy CRC 4789DEA7 Accurately ripped (confidence 7) [16048F4F] (AR v2) Copy OK
Track 12
Filename D:\EAC\12 - Die Verschweigung.wav
Peak level 68.9 % Extraction speed 6.5 X Track quality 99.9 % Test CRC D705EF52 Copy CRC D705EF52 Accurately ripped (confidence 7) [900F9CA2] (AR v2) Copy OK
Track 13
Filename D:\EAC\13 - Lied der Trennung.wav
Peak level 93.3 % Extraction speed 7.1 X Track quality 99.9 % Test CRC 8D9D8E35 Copy CRC 8D9D8E35 Accurately ripped (confidence 7) [C76EB715] (AR v2) Copy OK
Track 14
Filename D:\EAC\14 - Als Luise die Briefe....wav
Peak level 80.6 % Extraction speed 5.0 X Track quality 99.9 % Test CRC 5F2157F2 Copy CRC 5F2157F2 Accurately ripped (confidence 7) [0AD75816] (AR v2) Copy OK
Track 15
Filename D:\EAC\15 - Abendempfindung an Laura.wav
Peak level 66.2 % Extraction speed 9.1 X Track quality 100.0 % Test CRC 72839D71 Copy CRC 72839D71 Accurately ripped (confidence 7) [957DB517] (AR v2) Copy OK
Track 16
Filename D:\EAC\16 - An Chloe.wav
Peak level 94.4 % Extraction speed 8.4 X Track quality 100.0 % Test CRC BBABC7E6 Copy CRC BBABC7E6 Accurately ripped (confidence 7) [6F571063] (AR v2) Copy OK
Track 17
Filename D:\EAC\17 - Das Traumbild.wav
Peak level 46.9 % Extraction speed 6.9 X Track quality 99.9 % Test CRC A2D87F91 Copy CRC A2D87F91 Accurately ripped (confidence 7) [02BA7A54] (AR v2) Copy OK
Track 18
Filename D:\EAC\18 - Sehnsucht nach dem Fruehlinge.wav
Peak level 86.3 % Extraction speed 8.2 X Track quality 100.0 % Test CRC 1623BE3F Copy CRC 1623BE3F Accurately ripped (confidence 7) [F0AED4C9] (AR v2) Copy OK
Track 19
Filename D:\EAC\19 - Der Fruehling.wav
Peak level 46.9 % Extraction speed 8.3 X Track quality 100.0 % Test CRC BAB00EB2 Copy CRC BAB00EB2 Accurately ripped (confidence 7) [1B3F1A9D] (AR v2) Copy OK
Track 20
Filename D:\EAC\20 - Das Kinderspeil.wav
Peak level 54.1 % Extraction speed 8.0 X Track quality 100.0 % Test CRC BDA2E2FC Copy CRC BDA2E2FC Accurately ripped (confidence 7) [CB1045D1] (AR v2) Copy OK
Track 21
Filename D:\EAC\21 - Maenner suche stes zu naschen.wav
Peak level 43.5 % Extraction speed 8.5 X Track quality 100.0 % Test CRC 5848F11A Copy CRC 5848F11A Accurately ripped (confidence 7) [E275650D] (AR v2) Copy OK
Track 22
Filename D:\EAC\22 - Un moto di gioia.wav
Peak level 90.7 % Extraction speed 8.3 X Track quality 100.0 % Test CRC 788B6CC6 Copy CRC 788B6CC6 Accurately ripped (confidence 7) [90F8EC56] (AR v2) Copy OK
All tracks accurately ripped
No errors occurred
End of status report
==== Log checksum 51039237808A370BD4D386BE55669AECFC6D506050D335AFBCBAD18291B5E724 ====

LOG (.CUE):

REM GENRE ClassicalREM DATE 1991REM DISCID 500EB316REM COMMENT "ExactAudioCopy v1.0b3"PERFORMER "Barbara Bonney"TITLE "Mozart: Lieder"FILE "01 - An die Freude.wav" WAVE TRACK 01 AUDIO TITLE "An die Freude" PERFORMER "Barbara Bonney" PREGAP 00:00:32 INDEX 01 00:00:00FILE "02 - Ridente la calma.wav" WAVE TRACK 02 AUDIO TITLE "Ridente la calma" PERFORMER "Barbara Bonney" INDEX 01 00:00:00FILE "03 - Oiseaux, si tous les ans.wav" WAVE TRACK 03 AUDIO TITLE "Oiseaux, si tous les ans" PERFORMER "Barbara Bonney" INDEX 01 00:00:00FILE "04 - Dans un bois solitaire.wav" WAVE TRACK 04 AUDIO TITLE "Dans un bois solitaire" PERFORMER "Barbara Bonney" INDEX 01 00:00:00FILE "05 - O Gotteslamm.wav" WAVE TRACK 05 AUDIO TITLE "O Gotteslamm" PERFORMER "Barbara Bonney" INDEX 01 00:00:00FILE "06 - Komm, liebe Zither.wav" WAVE TRACK 06 AUDIO TITLE "Komm, liebe Zither" PERFORMER "Barbara Bonney" INDEX 01 00:00:00FILE "07 - Sei du mein Trost.wav" WAVE TRACK 07 AUDIO TITLE "Sei du mein Trost" PERFORMER "Barbara Bonney" INDEX 01 00:00:00FILE "08 - Der Zauberer.wav" WAVE TRACK 08 AUDIO TITLE "Der Zauberer" PERFORMER "Barbara Bonney" INDEX 01 00:00:00FILE "09 - Die Zufriedenheit.wav" WAVE TRACK 09 AUDIO TITLE "Die Zufriedenheit" PERFORMER "Barbara Bonney" INDEX 01 00:00:00FILE "10 - Das Veilchen.wav" WAVE TRACK 10 AUDIO TITLE "Das Veilchen" PERFORMER "Barbara Bonney" INDEX 01 00:00:00FILE "11 - Lied der Freiheit.wav" WAVE TRACK 11 AUDIO TITLE "Lied der Freiheit" PERFORMER "Barbara Bonney" INDEX 01 00:00:00FILE "12 - Die Verschweigung.wav" WAVE TRACK 12 AUDIO TITLE "Die Verschweigung" PERFORMER "Barbara Bonney" INDEX 01 00:00:00FILE "13 - Lied der Trennung.wav" WAVE TRACK 13 AUDIO TITLE "Lied der Trennung" PERFORMER "Barbara Bonney" INDEX 01 00:00:00FILE "14 - Als Luise die Briefe....wav" WAVE TRACK 14 AUDIO TITLE "Als Luise die Briefe..." PERFORMER "Barbara Bonney" INDEX 01 00:00:00FILE "15 - Abendempfindung an Laura.wav" WAVE TRACK 15 AUDIO TITLE "Abendempfindung an Laura" PERFORMER "Barbara Bonney" INDEX 01 00:00:00FILE "16 - An Chloe.wav" WAVE TRACK 16 AUDIO TITLE "An Chloe" PERFORMER "Barbara Bonney" INDEX 01 00:00:00FILE "17 - Das Traumbild.wav" WAVE TRACK 17 AUDIO TITLE "Das Traumbild" PERFORMER "Barbara Bonney" INDEX 01 00:00:00FILE "18 - Sehnsucht nach dem Fruehlinge.wav" WAVE TRACK 18 AUDIO TITLE "Sehnsucht nach dem Fruehlinge" PERFORMER "Barbara Bonney" INDEX 01 00:00:00FILE "19 - Der Fruehling.wav" WAVE TRACK 19 AUDIO TITLE "Der Fruehling" PERFORMER "Barbara Bonney" INDEX 01 00:00:00FILE "20 - Das Kinderspeil.wav" WAVE TRACK 20 AUDIO TITLE "Das Kinderspeil" PERFORMER "Barbara Bonney" INDEX 01 00:00:00FILE "21 - Maenner suche stes zu naschen.wav" WAVE TRACK 21 AUDIO TITLE "Maenner suche stes zu naschen" PERFORMER "Barbara Bonney" INDEX 01 00:00:00FILE "22 - Un moto di gioia.wav" WAVE TRACK 22 AUDIO TITLE "Un moto di gioia" PERFORMER "Barbara Bonney" INDEX 01 00:00:00
mp3
Внимание! Торрент-файл перезалит, просьба перекачать его заново, 10.01.2015 в 21:40 по МСК времени, рип переснят заново!



Показать сообщения:    

Текущее время: 11-Дек 07:14

Часовой пояс: UTC + 3


Вы не можете начинать темы
Вы не можете отвечать на сообщения
Вы не можете редактировать свои сообщения
Вы не можете удалять свои сообщения
Вы не можете голосовать в опросах
Вы не можете прикреплять файлы к сообщениям
Вы не можете скачивать файлы