(Opera vocal) Anna Netrebko – Richard Strauss (Vier Letzte Lieder, Ein Heldenleben) / Анна Нетребко - Рихард Штраус (Четыре последние песни, Жизнь героя) (Staatskapelle Berlin, Daniel Barenboim) - 2014, FLAC (image+.cue) lossless


 

[Цитировать]

Anna Netrebko – Richard Strauss

Жанр: Opera vocal
Страна-производитель диска: Made in the EU
Год издания диска: 2014
Издатель (лейбл): UNITEL CLASSICA / Deutsche Grammophon GmbH
Номер по каталогу: 00289 479 3964
Дата записи: 2014
Аудиокодек: FLAC
Тип рипа: image+.cue
Битрейт аудио: lossless
Продолжительность: 68'19
Источник: релизер
сайт-источник/ник/другое: JVA
Наличие сканов в содержимом раздачи: да
Треклист:

скрытый текст

01. Richard Strauss, Vier Letzte Lieder : 1. Fruhling 03:22
02. 2. September 04:44
03. 3. Beim Schlafengehen 05:40
04. 4. Im Abendrof 08:11
05. Richard Strauss, Ein Heldenleben : Der Held 04:24
06. Widersacher 03:31
07. Gefahrtin 12:34
08. Walstaff 08:43
09. Friedenswerke 06:05
10. Weltflucht und Vollendung 11:05
Исполнители:

скрытый текст

Richard Strauss
вокальные циклы "Четыре последние песни" и ''Жизнь героя''
Анна Нетребко (сопрано)
Концертная запись, Берлинская Штаатскапелла, Даниель Баренбойм
Staatskapelle Berlin, Daniel Barenboim

Лог создания рипа

Exact Audio Copy V0.99 prebeta 5 from 4. May 2009
Отчёт EAC об извлечении, выполненном 16. декабря 2014, 12:32
Anna Netrebko / Richard Strauss
Дисковод: ATAPI iHAS124 E Adapter: 0 ID: 0
Режим чтения : ДостоверностьИспользование точного потока : ДаОтключение кэша аудио : ДаИспользование указателей C2 : Нет
Коррекция смещения при чтении : 6Способность читать области Lead-in и Lead-out : НетЗаполнение пропущенных сэмплов тишиной : ДаУдаление блоков с тишиной в начале и конце : НетПри вычислениях CRC использовались нулевые сэмплы : ДаИнтерфейс : Встроенный Win32-интерфейс для Win NT/2000
Выходной формат : Пользовательский кодировщикВыбранный битрейт : 768 kBit/sКачество : ВысокийДобавление ID3-тэга : НетУтилита сжатия : C:\Program Files\Exact Audio Copy\Flac\flac.exeДополнительные параметры : -6 -V -T "ARTIST=%a" -T "TITLE=%t" -T "ALBUM=%g" -T "DATE=%y" -T "TRACKNUMBER=%n" -T "GENRE=%m" -T "COMMENT=%e" %s -o %d
TOC извлечённого CD
Трек | Старт | Длительность | Начальный сектор | Конечный сектор---------------------------------------------------------------------1 | 0:00.00 | 3:22.45 | 0 | 151942 | 3:22.45 | 4:44.21 | 15195 | 365153 | 8:06.66 | 5:40.26 | 36516 | 620414 | 13:47.17 | 8:11.33 | 62042 | 988995 | 21:58.50 | 4:24.03 | 98900 | 1187026 | 26:22.53 | 3:31.52 | 118703 | 1345797 | 29:54.30 | 12:34.14 | 134580 | 1911438 | 42:28.44 | 8:43.37 | 191144 | 2304059 | 51:12.06 | 6:05.02 | 230406 | 25778210 | 57:17.08 | 11:05.16 | 257783 | 307673
Характеристики диапазона извлечения и сообщения об ошибках
Выбранный диапазон
Имя файла C:\EAC\Anna Netrebko - Richard Strauss\Anna Netrebko - Richard Strauss.wav
Пиковый уровень 97.0 %Качество диапазона 99.9 %CRC копии 177C81A6Копирование... OK
Ошибок не произошло
AccurateRip: сводка
Трек 1 нет в базе данныхТрек 2 нет в базе данныхТрек 3 нет в базе данныхТрек 4 нет в базе данныхТрек 5 нет в базе данныхТрек 6 нет в базе данныхТрек 7 нет в базе данныхТрек 8 нет в базе данныхТрек 9 нет в базе данныхТрек 10 нет в базе данных
Ни одного трека нет в базе AccurateRip
Конец отчёта



Показать сообщения:    

Текущее время: 11-Дек 05:19

Часовой пояс: UTC + 3


Вы не можете начинать темы
Вы не можете отвечать на сообщения
Вы не можете редактировать свои сообщения
Вы не можете удалять свои сообщения
Вы не можете голосовать в опросах
Вы не можете прикреплять файлы к сообщениям
Вы не можете скачивать файлы