(Vocal) Enrico Caruso - Grand Collection - 2006, FLAC (tracks+.cue) lossless


 

[Цитировать]

Enrico Caruso - Grand Collection
Жанр: Vocal
Страна-производитель диска: Russia
Год издания диска: 2006
Издатель (лейбл): Квадро-Диск
Номер по каталогу: GCR198
Дата записи: 1902-1919
Аудиокодек: FLAC
Тип рипа: tracks+.cue
Битрейт аудио: lossless
Продолжительность: 1:13:05.
Источник: собственный рип
Наличие сканов в содержимом раздачи: да
Треклист:
01. Mattinata (Leoncavallo) [0:02:07.18]
02. Libiamo,libiamo (Verdi) [0:03:07.69]
03. La danza (Rossini) [0:03:14.11]
04. O sole mio (Capua) [0:03:22.21]
05. Una furtiva lagrima (Donizetti) [0:03:19.60]
06. Santa Lucia (Cottrau) [0:04:00.33]
07. Core 'ngrato (Cardillo\Cordiferro) [0:04:33.61]
08. Hantise d'amour (Szulc) [0:02:59.49]
09. A Granada (Alvarez\Elias) [0:03:47.59]
10. La campana di San Giusto (Arona\Drovetti) [0:04:34.49]
11. Tu ca nun chiagne (De Curtis\Bovio) [0:02:35.04]
12. Vieni sul mar (National Itaian Song) [0:03:35.66]
13. Quardanno 'a luna (Crescenzo) [0:03:28.46]
14. Over there... par la-bas (Cohan) [0:02:49.70]
15. Cielo turchino (Clociano) [0:02:34.63]
16. Mi par d'udir ancore (Bizet) [0:03:27.08]
17. La mia canzone (Tosti\Cimmino) [0:02:35.22]
18. Rigoletto "Questa o quella" (Verdi) [0:02:16.02]
19. Cavalleria rusticana siciliana "O Lola" (Pietro Mascagni) [0:02:23.40]
20. Un bacio ancora (De Curtis) [0:02:57.41]
21. Tosca "E lucevan le stelle" (Puccini) [0:02:37.02]
22. Germania "Studenti udite" (Alberto Franchetti) [0:01:55.16]
23. La partide (Alvarez\Blasco) [0:04:42.05]
Исполнители:
Исполнители не указаны

Лог создания рипа

Exact Audio Copy V1.0 beta 3 from 29. August 2011
Отчёт EAC об извлечении, выполненном 19. декабря 2014, 18:04
Enrico Caruso / Grand Collection
Дисковод: ASUS DRW-1814BLT Adapter: 4 ID: 0
Режим чтения : ДостоверностьИспользование точного потока : ДаОтключение кэша аудио : ДаИспользование указателей C2 : Нет
Коррекция смещения при чтении : 6Способность читать области Lead-in и Lead-out : НетЗаполнение пропущенных сэмплов тишиной : ДаУдаление блоков с тишиной в начале и конце : НетПри вычислениях CRC использовались нулевые сэмплы : ДаИнтерфейс : Встроенный Win32-интерфейс для Win NT/2000Обработка зазоров : Добавлено к предыдущему треку
Выходной формат : Пользовательский кодировщикВыбранный битрейт : 128 kBit/sКачество : ВысокийДобавление ID3-тега : НетУтилита сжатия : C:\Program Files\Exact Audio Copy\Flac\flac.exeДополнительные параметры : -V -8 -T "Genre=%genre%" -T "Artist=%artist%" -T "Title=%title%" -T "Album=%albumtitle%" -T "Date=%year%" -T "Tracknumber=%tracknr%" -T "Comment=EAC1.0b2 FLAC -8" %source%
TOC извлечённого CD
Трек | Старт | Длительность | Начальный сектор | Конечный сектор --------------------------------------------------------------------- 1 | 0:00.00 | 2:07.18 | 0 | 9542 2 | 2:07.18 | 3:07.69 | 9543 | 23636 3 | 5:15.12 | 3:14.11 | 23637 | 38197 4 | 8:29.23 | 3:22.21 | 38198 | 53368 5 | 11:51.44 | 3:19.60 | 53369 | 68353 6 | 15:11.29 | 4:00.33 | 68354 | 86386 7 | 19:11.62 | 4:33.61 | 86387 | 106922 8 | 23:45.48 | 2:59.49 | 106923 | 120396 9 | 26:45.22 | 3:47.59 | 120397 | 137480 10 | 30:33.06 | 4:34.49 | 137481 | 158079 11 | 35:07.55 | 2:35.04 | 158080 | 169708 12 | 37:42.59 | 3:35.66 | 169709 | 185899 13 | 41:18.50 | 3:28.46 | 185900 | 201545 14 | 44:47.21 | 2:49.70 | 201546 | 214290 15 | 47:37.16 | 2:34.63 | 214291 | 225903 16 | 50:12.04 | 3:27.08 | 225904 | 241436 17 | 53:39.12 | 2:35.22 | 241437 | 253083 18 | 56:14.34 | 2:16.02 | 253084 | 263285 19 | 58:30.36 | 2:23.40 | 263286 | 274050 20 | 60:54.01 | 2:57.41 | 274051 | 287366 21 | 63:51.42 | 2:37.02 | 287367 | 299143 22 | 66:28.44 | 1:55.16 | 299144 | 307784 23 | 68:23.60 | 4:42.05 | 307785 | 328939
Трек 1
Имя файла R:\Раздача 30\Enrico Caruso - 2006 - Grand Collection\01 Mattinata.wav
Длина предзазора 0:00:02.00
Пиковый уровень 79.4 % Скорость извлечения 3.4 X Качество трека 100.0 % CRC теста DAC8E5D0 CRC копии DAC8E5D0 Точное извлечение (достоверность 2) [A9A41173] (AR v1) Копирование... OK
Трек 2
Имя файла R:\Раздача 30\Enrico Caruso - 2006 - Grand Collection\02 Libiamo,libiamo.wav
Длина предзазора 0:00:02.00
Пиковый уровень 98.8 % Скорость извлечения 2.5 X Качество трека 99.9 % CRC теста 1C0B2C1D CRC копии 1C0B2C1D Точное извлечение (достоверность 2) [FC98762D] (AR v1) Копирование... OK
Трек 3
Имя файла R:\Раздача 30\Enrico Caruso - 2006 - Grand Collection\03 La danza.wav
Длина предзазора 0:00:02.00
Пиковый уровень 98.8 % Скорость извлечения 4.2 X Качество трека 100.0 % CRC теста 1E9E639B CRC копии 1E9E639B Точное извлечение (достоверность 2) [3C53765B] (AR v1) Копирование... OK
Трек 4
Имя файла R:\Раздача 30\Enrico Caruso - 2006 - Grand Collection\04 O sole mio.wav
Длина предзазора 0:00:02.00
Пиковый уровень 85.1 % Скорость извлечения 4.5 X Качество трека 100.0 % CRC теста 8312B919 CRC копии 8312B919 Точное извлечение (достоверность 2) [352A5392] (AR v1) Копирование... OK
Трек 5
Имя файла R:\Раздача 30\Enrico Caruso - 2006 - Grand Collection\05 Una furtiva lagrima.wav
Длина предзазора 0:00:02.00
Пиковый уровень 79.4 % Скорость извлечения 4.7 X Качество трека 100.0 % CRC теста 7A43617E CRC копии 7A43617E Точное извлечение (достоверность 2) [24A6CF83] (AR v1) Копирование... OK
Трек 6
Имя файла R:\Раздача 30\Enrico Caruso - 2006 - Grand Collection\06 Santa Lucia.wav
Длина предзазора 0:00:02.00
Пиковый уровень 88.0 % Скорость извлечения 5.1 X Качество трека 100.0 % CRC теста 60FD3C0A CRC копии 60FD3C0A Точное извлечение (достоверность 2) [622D7EA4] (AR v1) Копирование... OK
Трек 7
Имя файла R:\Раздача 30\Enrico Caruso - 2006 - Grand Collection\07 Core 'ngrato.wav
Длина предзазора 0:00:02.00
Пиковый уровень 98.8 % Скорость извлечения 5.4 X Качество трека 100.0 % CRC теста D22B4874 CRC копии D22B4874 Точное извлечение (достоверность 2) [6F3F87E9] (AR v1) Копирование... OK
Трек 8
Имя файла R:\Раздача 30\Enrico Caruso - 2006 - Grand Collection\08 Hantise d'amour.wav
Длина предзазора 0:00:02.00
Пиковый уровень 79.4 % Скорость извлечения 5.3 X Качество трека 100.0 % CRC теста A64965B7 CRC копии A64965B7 Точное извлечение (достоверность 2) [C97CD407] (AR v1) Копирование... OK
Трек 9
Имя файла R:\Раздача 30\Enrico Caruso - 2006 - Grand Collection\09 A Granada.wav
Длина предзазора 0:00:02.00
Пиковый уровень 89.1 % Скорость извлечения 5.8 X Качество трека 100.0 % CRC теста 9C299C27 CRC копии 9C299C27 Точное извлечение (достоверность 2) [6F140D7C] (AR v1) Копирование... OK
Трек 10
Имя файла R:\Раздача 30\Enrico Caruso - 2006 - Grand Collection\10 La campana di San Giusto.wav
Длина предзазора 0:00:02.00
Пиковый уровень 89.1 % Скорость извлечения 6.1 X Качество трека 100.0 % CRC теста FBD70E50 CRC копии FBD70E50 Точное извлечение (достоверность 2) [67AB3F93] (AR v1) Копирование... OK
Трек 11
Имя файла R:\Раздача 30\Enrico Caruso - 2006 - Grand Collection\11 Tu ca nun chiagne.wav
Длина предзазора 0:00:02.00
Пиковый уровень 89.1 % Скорость извлечения 3.7 X Качество трека 99.9 % CRC теста B6E2606D CRC копии B6E2606D Точное извлечение (достоверность 2) [BD808854] (AR v1) Копирование... OK
Трек 12
Имя файла R:\Раздача 30\Enrico Caruso - 2006 - Grand Collection\12 Vieni sul mar.wav
Длина предзазора 0:00:02.00
Пиковый уровень 92.7 % Скорость извлечения 6.3 X Качество трека 100.0 % CRC теста 57C36EF4 CRC копии 57C36EF4 Точное извлечение (достоверность 2) [A6B7BCBF] (AR v1) Копирование... OK
Трек 13
Имя файла R:\Раздача 30\Enrico Caruso - 2006 - Grand Collection\13 Quardanno 'a luna.wav
Длина предзазора 0:00:02.00
Пиковый уровень 89.1 % Скорость извлечения 6.4 X Качество трека 100.0 % CRC теста 68CE44E3 CRC копии 68CE44E3 Точное извлечение (достоверность 2) [7F5C3332] (AR v1) Копирование... OK
Трек 14
Имя файла R:\Раздача 30\Enrico Caruso - 2006 - Grand Collection\14 Over there... par la-bas.wav
Длина предзазора 0:00:02.00
Пиковый уровень 70.7 % Скорость извлечения 6.3 X Качество трека 100.0 % CRC теста 8FF81828 CRC копии 8FF81828 Точное извлечение (достоверность 2) [CA891972] (AR v1) Копирование... OK
Трек 15
Имя файла R:\Раздача 30\Enrico Caruso - 2006 - Grand Collection\15 Cielo turchino.wav
Длина предзазора 0:00:02.00
Пиковый уровень 89.0 % Скорость извлечения 6.3 X Качество трека 100.0 % CRC теста 42E44265 CRC копии 42E44265 Точное извлечение (достоверность 2) [560F496A] (AR v1) Копирование... OK
Трек 16
Имя файла R:\Раздача 30\Enrico Caruso - 2006 - Grand Collection\16 Mi par d'udir ancore.wav
Длина предзазора 0:00:02.00
Пиковый уровень 89.1 % Скорость извлечения 6.8 X Качество трека 100.0 % CRC теста 503AEB24 CRC копии 503AEB24 Точное извлечение (достоверность 2) [D13D833F] (AR v1) Копирование... OK
Трек 17
Имя файла R:\Раздача 30\Enrico Caruso - 2006 - Grand Collection\17 La mia canzone.wav
Длина предзазора 0:00:02.00
Пиковый уровень 98.9 % Скорость извлечения 6.6 X Качество трека 100.0 % CRC теста 5ADC9EF1 CRC копии 5ADC9EF1 Точное извлечение (достоверность 2) [6249DA54] (AR v1) Копирование... OK
Трек 18
Имя файла R:\Раздача 30\Enrico Caruso - 2006 - Grand Collection\18 Rigoletto ''Questa o quella''.wav
Длина предзазора 0:00:02.00
Пиковый уровень 89.1 % Скорость извлечения 6.5 X Качество трека 100.0 % CRC теста 0E79D006 CRC копии 0E79D006 Точное извлечение (достоверность 2) [7EB7B598] (AR v1) Копирование... OK
Трек 19
Имя файла R:\Раздача 30\Enrico Caruso - 2006 - Grand Collection\19 Cavalleria rusticana siciliana ''O Lola''.wav
Длина предзазора 0:00:02.00
Пиковый уровень 82.5 % Скорость извлечения 6.7 X Качество трека 100.0 % CRC теста 8F67D504 CRC копии 8F67D504 Точное извлечение (достоверность 2) [EA9B16E8] (AR v1) Копирование... OK
Трек 20
Имя файла R:\Раздача 30\Enrico Caruso - 2006 - Grand Collection\20 Un bacio ancora.wav
Длина предзазора 0:00:02.00
Пиковый уровень 89.1 % Скорость извлечения 7.1 X Качество трека 100.0 % CRC теста 1AA52AEA CRC копии 1AA52AEA Точное извлечение (достоверность 2) [34FF82B9] (AR v1) Копирование... OK
Трек 21
Имя файла R:\Раздача 30\Enrico Caruso - 2006 - Grand Collection\21 Tosca ''E lucevan le stelle''.wav
Длина предзазора 0:00:02.00
Пиковый уровень 89.1 % Скорость извлечения 4.5 X Качество трека 99.9 % CRC теста 2B4CEA31 CRC копии 2B4CEA31 Точное извлечение (достоверность 2) [28C89093] (AR v1) Копирование... OK
Трек 22
Имя файла R:\Раздача 30\Enrico Caruso - 2006 - Grand Collection\22 Germania ''Studenti udite''.wav
Длина предзазора 0:00:02.00
Пиковый уровень 89.0 % Скорость извлечения 4.0 X Качество трека 99.9 % CRC теста 6A3CDBD6 CRC копии 6A3CDBD6 Точное извлечение (достоверность 2) [2C86A369] (AR v1) Копирование... OK
Трек 23
Имя файла R:\Раздача 30\Enrico Caruso - 2006 - Grand Collection\23 La partide.wav
Длина предзазора 0:00:02.00
Пиковый уровень 89.1 % Скорость извлечения 7.9 X Качество трека 100.0 % CRC теста 73776764 CRC копии 73776764 Точное извлечение (достоверность 2) [11237193] (AR v1) Копирование... OK
Все треки извлечены точно
Ошибок не произошло
Конец отчёта
==== Контрольная сумма отчёта A94EACA961E301BCEE58DF2166BD0B7A7C3D70A0A5B73DF398CB8AFE9C158285 ====

Содержание индексной карты (.CUE)

REM GENRE ClassicalREM DATE 2006REM DISCID 3B112117REM COMMENT "ExactAudioCopy v1.0b3"PERFORMER "Enrico Caruso"TITLE "Grand Collection"FILE "01 Mattinata.wav" WAVE TRACK 01 AUDIO TITLE "Mattinata" PERFORMER "Enrico Caruso" FLAGS DCP INDEX 01 00:00:00 TRACK 02 AUDIO TITLE "Libiamo,libiamo" PERFORMER "Enrico Caruso" FLAGS DCP INDEX 00 02:05:18FILE "02 Libiamo,libiamo.wav" WAVE INDEX 01 00:00:00 TRACK 03 AUDIO TITLE "La danza" PERFORMER "Enrico Caruso" FLAGS DCP INDEX 00 03:05:69FILE "03 La danza.wav" WAVE INDEX 01 00:00:00 TRACK 04 AUDIO TITLE "O sole mio" PERFORMER "Enrico Caruso" FLAGS DCP INDEX 00 03:12:11FILE "04 O sole mio.wav" WAVE INDEX 01 00:00:00 TRACK 05 AUDIO TITLE "Una furtiva lagrima" PERFORMER "Enrico Caruso" FLAGS DCP INDEX 00 03:20:21FILE "05 Una furtiva lagrima.wav" WAVE INDEX 01 00:00:00 TRACK 06 AUDIO TITLE "Santa Lucia" PERFORMER "Enrico Caruso" FLAGS DCP INDEX 00 03:17:60FILE "06 Santa Lucia.wav" WAVE INDEX 01 00:00:00 TRACK 07 AUDIO TITLE "Core 'ngrato" PERFORMER "Enrico Caruso" FLAGS DCP INDEX 00 03:58:33FILE "07 Core 'ngrato.wav" WAVE INDEX 01 00:00:00 TRACK 08 AUDIO TITLE "Hantise d'amour" PERFORMER "Enrico Caruso" FLAGS DCP INDEX 00 04:31:61FILE "08 Hantise d'amour.wav" WAVE INDEX 01 00:00:00 TRACK 09 AUDIO TITLE "A Granada" PERFORMER "Enrico Caruso" FLAGS DCP INDEX 00 02:57:49FILE "09 A Granada.wav" WAVE INDEX 01 00:00:00 TRACK 10 AUDIO TITLE "La campana di San Giusto" PERFORMER "Enrico Caruso" FLAGS DCP INDEX 00 03:45:59FILE "10 La campana di San Giusto.wav" WAVE INDEX 01 00:00:00 TRACK 11 AUDIO TITLE "Tu ca nun chiagne" PERFORMER "Enrico Caruso" FLAGS DCP INDEX 00 04:32:49FILE "11 Tu ca nun chiagne.wav" WAVE INDEX 01 00:00:00 TRACK 12 AUDIO TITLE "Vieni sul mar" PERFORMER "Enrico Caruso" FLAGS DCP INDEX 00 02:33:04FILE "12 Vieni sul mar.wav" WAVE INDEX 01 00:00:00 TRACK 13 AUDIO TITLE "Quardanno 'a luna" PERFORMER "Enrico Caruso" FLAGS DCP INDEX 00 03:33:66FILE "13 Quardanno 'a luna.wav" WAVE INDEX 01 00:00:00 TRACK 14 AUDIO TITLE "Over there... par la-bas" PERFORMER "Enrico Caruso" FLAGS DCP INDEX 00 03:26:46FILE "14 Over there... par la-bas.wav" WAVE INDEX 01 00:00:00 TRACK 15 AUDIO TITLE "Cielo turchino" PERFORMER "Enrico Caruso" FLAGS DCP INDEX 00 02:47:70FILE "15 Cielo turchino.wav" WAVE INDEX 01 00:00:00 TRACK 16 AUDIO TITLE "Mi par d'udir ancore" PERFORMER "Enrico Caruso" FLAGS DCP INDEX 00 02:32:63FILE "16 Mi par d'udir ancore.wav" WAVE INDEX 01 00:00:00 TRACK 17 AUDIO TITLE "La mia canzone" PERFORMER "Enrico Caruso" FLAGS DCP INDEX 00 03:25:08FILE "17 La mia canzone.wav" WAVE INDEX 01 00:00:00 TRACK 18 AUDIO TITLE "Rigoletto 'Questa o quella'" PERFORMER "Enrico Caruso" FLAGS DCP INDEX 00 02:33:22FILE "18 Rigoletto ''Questa o quella''.wav" WAVE INDEX 01 00:00:00 TRACK 19 AUDIO TITLE "Cavalleria rusticana siciliana 'O Lola'" PERFORMER "Enrico Caruso" FLAGS DCP INDEX 00 02:14:02FILE "19 Cavalleria rusticana siciliana ''O Lola''.wav" WAVE INDEX 01 00:00:00 TRACK 20 AUDIO TITLE "Un bacio ancora" PERFORMER "Enrico Caruso" FLAGS DCP INDEX 00 02:21:40FILE "20 Un bacio ancora.wav" WAVE INDEX 01 00:00:00 TRACK 21 AUDIO TITLE "Tosca 'E lucevan le stelle'" PERFORMER "Enrico Caruso" FLAGS DCP INDEX 00 02:55:41FILE "21 Tosca ''E lucevan le stelle''.wav" WAVE INDEX 01 00:00:00 TRACK 22 AUDIO TITLE "Germania 'Studenti udite'" PERFORMER "Enrico Caruso" FLAGS DCP INDEX 00 02:35:02FILE "22 Germania ''Studenti udite''.wav" WAVE INDEX 01 00:00:00 TRACK 23 AUDIO TITLE "La partide" PERFORMER "Enrico Caruso" FLAGS DCP INDEX 00 01:53:16FILE "23 La partide.wav" WAVE INDEX 01 00:00:00



Показать сообщения:    

Текущее время: 10-Дек 06:04

Часовой пояс: UTC + 3


Вы не можете начинать темы
Вы не можете отвечать на сообщения
Вы не можете редактировать свои сообщения
Вы не можете удалять свои сообщения
Вы не можете голосовать в опросах
Вы не можете прикреплять файлы к сообщениям
Вы не можете скачивать файлы