(Classical) Marcel Landowski - Un Enfant Appele, La Prison (Rostropovich Mstislav, Vishnevskaya Galina, Landowski Marcel, French National Orchestra, Lille National Orchestra) - 1984, FLAC (image+.cue) lossless


 

[Цитировать]

Marcel Landowski (1915-1999) - Un Enfant Appele, La Prison
Жанр: Classical
Год издания диска: 1984
Издатель (лейбл): Erato
Номер по каталогу:
Дата записи:
Аудиокодек: FLAC
Тип рипа: image+.cue
Битрейт аудио: lossless
Продолжительность: 00:59:37
Источник: скачано из сети
Наличие сканов в содержимом раздачи: да
Треклист:
Un Enfant Appelle
01. loin, tres loin (08:35)
02. Je Crois Tres Bas (06:10)
03. La Nuit Mem Ou Il fut livre (08:51)
La Prison
04. L'attente (09:05)
05. l'interrogatoire (12:40)
06. La Prison - (14:16)
Исполнители:
Vishnevskaya Galina,
French National Orchestra
Rostropovich Mstislav,
Lille National Orchestra
Landowski Marcel

LOG EAC

Exact Audio Copy V1.0 beta 3 from 29. August 2011
EAC extraction logfile from 12. January 2012, 23:39
Marcel Landowski / Un Enfant Appele, La Prison (Mstislav Rostropovich)
Used drive : TSSTcorpCD/DVDW TS-H552B Adapter: 3 ID: 1
Read mode : SecureUtilize accurate stream : YesDefeat audio cache : NoMake use of C2 pointers : Yes
Read offset correction : 12Overread into Lead-In and Lead-Out : NoFill up missing offset samples with silence : YesDelete leading and trailing silent blocks : NoNull samples used in CRC calculations : YesUsed interface : Native Win32 interface for Win NT & 2000
Used output format : User Defined EncoderSelected bitrate : 896 kBit/sQuality : HighAdd ID3 tag : NoCommand line compressor : C:\Program Files (x86)\Exact Audio Copy\Flac\flac.exeAdditional command line options : -V -0 -T "artist=%artist%" -T "title=%title%" -T "album=%albumtitle%" -T "date=%year%" -T "tracknumber=%tracknr%" -T "genre=%genre%" %source%
TOC of the extracted CD
Track | Start | Length | Start sector | End sector---------------------------------------------------------1 | 0:00.00 | 8:35.62 | 0 | 386862 | 8:35.62 | 6:10.60 | 38687 | 664963 | 14:46.47 | 8:51.05 | 66497 | 1063264 | 23:37.52 | 9:05.10 | 106327 | 1472115 | 32:42.62 | 12:40.58 | 147212 | 2042696 | 45:23.45 | 14:16.47 | 204270 | 268516
Range status and errors
Selected range
Filename F:\Musique\Landowski\Un_Enfant_Appele\Marcel Landowski - Un Enfant Appele, La Prison (Mstislav Rostropovich).wav
Peak level 99.3 %Extraction speed 10.0 XRange quality 99.9 %Test CRC 26104A4CCopy CRC 26104A4CCopy OK
No errors occurred
AccurateRip summary
Track 1 accurately ripped (confidence 1) [A75B9825] (AR v1)Track 2 accurately ripped (confidence 1) [219F534B] (AR v1)Track 3 accurately ripped (confidence 1) [4C94EF98] (AR v1)Track 4 accurately ripped (confidence 1) [EFD8136E] (AR v1)Track 5 accurately ripped (confidence 1) [7F5CA121] (AR v1)Track 6 cannot be verified as accurate (confidence 1) [CCAB5024], AccurateRip returned [FA9AF58A] (AR v2)
5 track(s) accurately ripped1 track(s) could not be verified as accurate
Some tracks could not be verified as accurate
End of status report
==== Log checksum EEAD02DE701E49F6FC7FA8205C01367BB229B7EF051BFF8213056536EA21D48D ====
Marcel Landowski - Piano Concerto No. 2 - Ondes Martenot Concerto - Trompette Concerto - 1978
Marcel Landowski - Le Fantome de l'Opera - 1982



Показать сообщения:    

Текущее время: 05-Дек 13:34

Часовой пояс: UTC + 3


Вы не можете начинать темы
Вы не можете отвечать на сообщения
Вы не можете редактировать свои сообщения
Вы не можете удалять свои сообщения
Вы не можете голосовать в опросах
Вы не можете прикреплять файлы к сообщениям
Вы не можете скачивать файлы