(Classical) Мусоргский: Песни и пляски смерти • Чайковский, Танеев: Романсы - Дмитрий Хворостовский, Ivari Ilja - 2013, FLAC (image+.cue) lossless


 

[Цитировать]

Мусоргский: Песни и пляски смерти • Чайковский, Танеев: Романсы - Дмитрий Хворостовский, Ivari Ilja
Жанр: Classical
Страна-производитель диска: Finland
Год издания диска: 2013
Издатель (лейбл): Ondine
Номер по каталогу: ODE 1216-2
Дата записи: 2011
Аудиокодек: FLAC
Тип рипа: image+.cue
Битрейт аудио: lossless
Продолжительность: 58:34
Источник: собственный рип
Наличие сканов в содержимом раздачи: да
Треклист:
Петр Ильич Чайковский (1840-1893)
[1]-[6] Шесть романсов, Op. 73
Модест Петрович Мусоргский (1839–1881)
[7]-[10] Песни и пляски смерти
Сергей Иванович Танеев (1856–1915)
[11] Люди спят, Op.17 No.10
[12] Менуэт, Op.26 No.9
[13] Не ветер вея с высоты, Op.17 No.5
[14] Зимний путь, Op.32 No.4
[15] Сталактиты, Op.26 No.6
[16] Бьется сердце беспокойное, Op.17 No.9
Исполнители:
Дмитрий Хворостовский баритон
Ivari Ilja piano

Лог создания рипа

Exact Audio Copy V1.0 beta 3 from 29. August 2011
EAC extraction logfile from 30. August 2014, 17:55
Dmitri Hvorostovsky, Ivari Ilja / In this moonlit night
Used drive : HL-DT-STDVDRAM GU70N Adapter: 0 ID: 0
Read mode : SecureUtilize accurate stream : YesDefeat audio cache : YesMake use of C2 pointers : No
Read offset correction : 48Overread into Lead-In and Lead-Out : NoFill up missing offset samples with silence : YesDelete leading and trailing silent blocks : NoNull samples used in CRC calculations : YesUsed interface : Native Win32 interface for Win NT & 2000
Used output format : User Defined EncoderSelected bitrate : 128 kBit/sQuality : HighAdd ID3 tag : NoCommand line compressor : C:\Program Files (x86)\Exact Audio Copy\Flac\flac.exeAdditional command line options : -V -8 -T "Date=%year%" -T "Genre=%genre%" %source%
TOC of the extracted CD
Track | Start | Length | Start sector | End sector --------------------------------------------------------- 1 | 0:00.00 | 2:43.46 | 0 | 12270 2 | 2:43.46 | 4:09.62 | 12271 | 31007 3 | 6:53.33 | 2:02.41 | 31008 | 40198 4 | 8:55.74 | 1:54.36 | 40199 | 48784 5 | 10:50.35 | 1:51.58 | 48785 | 57167 6 | 12:42.18 | 3:04.67 | 57168 | 71034 7 | 15:47.10 | 5:27.35 | 71035 | 95594 8 | 21:14.45 | 5:01.67 | 95595 | 118236 9 | 26:16.37 | 5:20.47 | 118237 | 142283 10 | 31:37.09 | 6:25.15 | 142284 | 171173 11 | 38:02.24 | 3:38.01 | 171174 | 187524 12 | 41:40.25 | 4:48.47 | 187525 | 209171 13 | 46:28.72 | 2:19.12 | 209172 | 219608 14 | 48:48.09 | 3:05.25 | 219609 | 233508 15 | 51:53.34 | 4:24.65 | 233509 | 253373 16 | 56:18.24 | 2:14.69 | 253374 | 263492
Range status and errors
Selected range
Filename C:\temp\In This Moonlit Night - Hvorostovsky\In this moonlit night.wav
Peak level 96.5 % Extraction speed 5.0 X Range quality 99.9 % Test CRC 654F2970 Copy CRC 654F2970 Copy OK
No errors occurred
AccurateRip summary
Track 1 not present in databaseTrack 2 not present in databaseTrack 3 not present in databaseTrack 4 not present in databaseTrack 5 not present in databaseTrack 6 not present in databaseTrack 7 not present in databaseTrack 8 not present in databaseTrack 9 not present in databaseTrack 10 not present in databaseTrack 11 not present in databaseTrack 12 not present in databaseTrack 13 not present in databaseTrack 14 not present in databaseTrack 15 not present in databaseTrack 16 not present in database
None of the tracks are present in the AccurateRip database
End of status report
==== Log checksum 130A0A0688FA012986CC4AC15626556DF2A3D89460A23AC1A44875BAB9C314CB ====



Показать сообщения:    

Текущее время: 03-Дек 03:18

Часовой пояс: UTC + 3


Вы не можете начинать темы
Вы не можете отвечать на сообщения
Вы не можете редактировать свои сообщения
Вы не можете удалять свои сообщения
Вы не можете голосовать в опросах
Вы не можете прикреплять файлы к сообщениям
Вы не можете скачивать файлы