(Song) Таривердиев - Песни • Щедрин - Сольфеджио • Гаврилин - Русская тетрадь (Зара Долуханова, Нина Светланова) - 1993, FLAC (image+.cue) lossless


 

[Цитировать]

Shchedrin
Gavrilin
Tariverdiev

Song Cycles
-
-
- Жанр: Song
Страна-производитель диска: USA
Год издания диска: 1993
Издатель (лейбл): Russian Disc
Дата записи: 1971
Аудиокодек: FLAC
Тип рипа: image+.cue
Битрейт аудио: lossless
Продолжительность: 58'00''
Источник: собственный рип
Наличие сканов в содержимом раздачи: да
Треклист:
[01] Таривердиев - Вечерело (Мартынов)
[02] Вода (Мартынов)
[03] Листья (Мартынов)
[04] Старинный романс (Ахмадулина)
[05] Я думала, что ты мне враг (Ахмадулина)
[06] Пятнадцать мальчиков (Ахмадулина)
[07] Щедрин - Сольфеджио: Non legato
[08] Legato
[09] Staccato
[10] Гаврилин - Русская тетрадь: Над рекой стоит калина
[11] Страдальная
[12] Страдальная
[13] Зима
[14] Сею-вею
[15] Дело было
[16] Страдальная
[17] В прекраснейшем месяце мае
Исполнители:
Зара Долуханова - меццо-сопрано
Нина Светланова - фортепиано-

Лог создания рипа

Exact Audio Copy V1.0 beta 3 from 29. August 2011
EAC extraction logfile from 21. November 2014, 22:43
Zara Dolukhanova / Tariverdiev, Shchedrin, Gavrillin - Songs
Used drive : HL-DT-STDVD+-RW GU90N Adapter: 0 ID: 0
Read mode : SecureUtilize accurate stream : YesDefeat audio cache : YesMake use of C2 pointers : No
Read offset correction : 102Overread into Lead-In and Lead-Out : NoFill up missing offset samples with silence : YesDelete leading and trailing silent blocks : NoNull samples used in CRC calculations : YesUsed interface : Native Win32 interface for Win NT & 2000
Used output format : User Defined EncoderSelected bitrate : 1024 kBit/sQuality : HighAdd ID3 tag : NoCommand line compressor : C:\Program Files (x86)\FLAC\flac.exeAdditional command line options : -T "COMMENT=rip by el coronel" -8 -V %source%
TOC of the extracted CD
Track | Start | Length | Start sector | End sector --------------------------------------------------------- 1 | 0:00.00 | 2:35.00 | 0 | 11624 2 | 2:35.00 | 2:05.25 | 11625 | 21024 3 | 4:40.25 | 4:19.72 | 21025 | 40521 4 | 9:00.22 | 2:24.05 | 40522 | 51326 5 | 11:24.27 | 3:11.05 | 51327 | 65656 6 | 14:35.32 | 3:57.53 | 65657 | 83484 7 | 18:33.10 | 2:24.05 | 83485 | 94289 8 | 20:57.15 | 2:38.30 | 94290 | 106169 9 | 23:35.45 | 2:47.57 | 106170 | 118751 10 | 26:23.27 | 2:08.18 | 118752 | 128369 11 | 28:31.45 | 2:22.12 | 128370 | 139031 12 | 30:53.57 | 4:09.48 | 139032 | 157754 13 | 35:03.30 | 6:10.35 | 157755 | 185539 14 | 41:13.65 | 2:55.17 | 185540 | 198681 15 | 44:09.07 | 3:06.13 | 198682 | 212644 16 | 47:15.20 | 4:59.45 | 212645 | 235114 17 | 52:14.65 | 5:45.00 | 235115 | 260989
Range status and errors
Selected range
Filename F:\Music\Tariverdiev, Schedrin, Gavrilin - Songs (Dolukhanova)\CD.wav
Peak level 88.0 % Extraction speed 4.5 X Range quality 100.0 % Test CRC D95F92E9 Copy CRC D95F92E9 Copy OK
No errors occurred
AccurateRip summary
Track 1 not present in databaseTrack 2 not present in databaseTrack 3 not present in databaseTrack 4 not present in databaseTrack 5 not present in databaseTrack 6 not present in databaseTrack 7 not present in databaseTrack 8 not present in databaseTrack 9 not present in databaseTrack 10 not present in databaseTrack 11 not present in databaseTrack 12 not present in databaseTrack 13 not present in databaseTrack 14 not present in databaseTrack 15 not present in databaseTrack 16 not present in databaseTrack 17 not present in database
None of the tracks are present in the AccurateRip database
End of status report
==== Log checksum 3035947C3C02822B0AF2D19AB43384994F3EA7C0D1631E239BB0DF1C4DB5F6D2 ====

Содержание индексной карты (.CUE)

REM GENRE ClassicalREM DATE 1993REM DISCID F10D9711REM COMMENT "ExactAudioCopy v1.0b3"PERFORMER "Зара Долуханова, Нина Светланова"TITLE "Таривердиев, Щедрин, Гаврилин - песни"FILE "CD.flac" WAVE TRACK 01 AUDIO TITLE "Таривердиев - Вечерело (Мартынов)" PERFORMER "Зара Долуханова, Нина Светланова" INDEX 01 00:00:00 TRACK 02 AUDIO TITLE "Вода (Мартынов)" PERFORMER "Зара Долуханова, Нина Светланова" INDEX 00 02:31:55 INDEX 01 02:35:00 TRACK 03 AUDIO TITLE "Листья (Мартынов)" PERFORMER "Зара Долуханова, Нина Светланова" INDEX 00 04:38:00 INDEX 01 04:40:25 TRACK 04 AUDIO TITLE "Старинный романс (Ахмадулина)" PERFORMER "Зара Долуханова, Нина Светланова" INDEX 00 08:55:17 INDEX 01 09:00:22 TRACK 05 AUDIO TITLE "Я думала, что ты мне враг (Ахмадулина)" PERFORMER "Зара Долуханова, Нина Светланова" INDEX 00 11:23:00 INDEX 01 11:24:27 TRACK 06 AUDIO TITLE "Пятнадцать мальчиков (Ахмадулина)" PERFORMER "Зара Долуханова, Нина Светланова" INDEX 00 14:33:00 INDEX 01 14:35:32 TRACK 07 AUDIO TITLE "Щедрин - Сольфеджио: Non legato" PERFORMER "Зара Долуханова, Нина Светланова" INDEX 00 18:29:05 INDEX 01 18:33:10 TRACK 08 AUDIO TITLE "Legato" PERFORMER "Зара Долуханова, Нина Светланова" INDEX 00 20:55:65 INDEX 01 20:57:15 TRACK 09 AUDIO TITLE "Staccato" PERFORMER "Зара Долуханова, Нина Светланова" INDEX 00 23:34:47 INDEX 01 23:35:45 TRACK 10 AUDIO TITLE "Гаврилин - Русская тетрадь: Над рекой стоит калина" PERFORMER "Зара Долуханова, Нина Светланова" INDEX 00 26:21:17 INDEX 01 26:23:27 TRACK 11 AUDIO TITLE "Страдальная" PERFORMER "Зара Долуханова, Нина Светланова" INDEX 00 28:31:22 INDEX 01 28:31:45 TRACK 12 AUDIO TITLE "Страдальная" PERFORMER "Зара Долуханова, Нина Светланова" INDEX 00 30:52:72 INDEX 01 30:53:57 TRACK 13 AUDIO TITLE "Зима" PERFORMER "Зара Долуханова, Нина Светланова" INDEX 00 35:02:37 INDEX 01 35:03:30 TRACK 14 AUDIO TITLE "Сею-вею" PERFORMER "Зара Долуханова, Нина Светланова" INDEX 01 41:13:65 TRACK 15 AUDIO TITLE "Дело было" PERFORMER "Зара Долуханова, Нина Светланова" INDEX 00 44:08:40 INDEX 01 44:09:07 TRACK 16 AUDIO TITLE "Страдальная" PERFORMER "Зара Долуханова, Нина Светланова" INDEX 00 47:14:40 INDEX 01 47:15:20 TRACK 17 AUDIO TITLE "В прекраснейшем месяце мае" PERFORMER "Зара Долуханова, Нина Светланова" INDEX 01 52:14:65



Показать сообщения:    

Текущее время: 06-Дек 20:59

Часовой пояс: UTC + 3


Вы не можете начинать темы
Вы не можете отвечать на сообщения
Вы не можете редактировать свои сообщения
Вы не можете удалять свои сообщения
Вы не можете голосовать в опросах
Вы не можете прикреплять файлы к сообщениям
Вы не можете скачивать файлы