(Romance) Чайковский - Собрание романсов • Том I (Надежда Красная, Вадим Федоровцев) - 1994, FLAC (image+.cue) lossless


 

[Цитировать]

Tchaikovsky
Complete Romances • Volume1
-
-
- Жанр: Romance
Страна-производитель диска: USA
Год издания диска: 1994
Издатель (лейбл): Russian Disc
Дата записи: 1990
Аудиокодек: FLAC
Тип рипа: image+.cue
Битрейт аудио: lossless
Продолжительность: 71'28''
Источник: собственный рип
Наличие сканов в содержимом раздачи: да
Треклист:
[01] Мой гений, мой ангел, мой друг (Фет)
[02] Песнь Земфиры (Пушкин)
[03] Mezza notte
[04] Шесть романсов, соч.6 - No.1: Не верь, мой друг (Толстой)
[05] No.2: Ни слова, о друг мой (Хартман)
[06] No.3: И больно, и сладко (Ростопшина)
[07] No.4: Слеза дрожит (Толстой)
[08] No.5: Отчего? (Гейне)
[09] No.6: Нет, только тот, кто знал (Гёте)
[10] Забыть так скоро (Апухтин)
[11] Шесть романсов, соч.16 - No.1: Колыбельная (Майков)
[12] No.2: Погоди! (Греков)
[13] No.3: Пойми хоть раз (Фет)
[14] No.4: О, спой же ту песню (Хеманс)
[15] No.5: Твой образ светлый (Чайковский)
[16] No.6: Новогреческая песня (Майков)
[17] Уноси моё сердце (Фет)
[18] Глазки весны голубые (Гейне)
[19] Шесть романсов, соч.2 - No.1: Примирение (Щербина)
[20] No.2: Как над горячею золой (Тютчев)
[21] No.3: Песнь миньона (Гёте)
[22] No.4: Канарейка (Мей)
[23] No.5: Я с ней никогда не говорил (Мей)
[24] No.6: Как наладили: дурак (Мей)
[25] Хотел бы в единое слово (Гейне)
Исполнители:
Наджеда Красная - сопрано
Вадим Федоровцев - фортепиано-

Лог создания рипа

Exact Audio Copy V1.0 beta 3 from 29. August 2011
EAC extraction logfile from 21. November 2014, 22:10
Nadezhda Krasnaya with Vadim Fedorovtsev / Complete Romances - Volume 1
Used drive : HL-DT-STDVD+-RW GU90N Adapter: 0 ID: 0
Read mode : SecureUtilize accurate stream : YesDefeat audio cache : YesMake use of C2 pointers : No
Read offset correction : 102Overread into Lead-In and Lead-Out : NoFill up missing offset samples with silence : YesDelete leading and trailing silent blocks : NoNull samples used in CRC calculations : YesUsed interface : Native Win32 interface for Win NT & 2000
Used output format : User Defined EncoderSelected bitrate : 1024 kBit/sQuality : HighAdd ID3 tag : NoCommand line compressor : C:\Program Files (x86)\FLAC\flac.exeAdditional command line options : -T "COMMENT=rip by el coronel" -8 -V %source%
TOC of the extracted CD
Track | Start | Length | Start sector | End sector --------------------------------------------------------- 1 | 0:00.00 | 1:42.63 | 0 | 7712 2 | 1:42.63 | 1:34.25 | 7713 | 14787 3 | 3:17.13 | 2:07.62 | 14788 | 24374 4 | 5:25.00 | 4:10.00 | 24375 | 43124 5 | 9:35.00 | 2:52.50 | 43125 | 56074 6 | 12:27.50 | 2:26.63 | 56075 | 67087 7 | 14:54.38 | 3:16.00 | 67088 | 81787 8 | 18:10.38 | 2:46.37 | 81788 | 94274 9 | 20:57.00 | 2:54.00 | 94275 | 107324 10 | 23:51.00 | 3:08.00 | 107325 | 121424 11 | 26:59.00 | 3:54.00 | 121425 | 138974 12 | 30:53.00 | 3:19.00 | 138975 | 153899 13 | 34:12.00 | 1:27.25 | 153900 | 160449 14 | 35:39.25 | 2:52.13 | 160450 | 173362 15 | 38:31.38 | 2:51.00 | 173363 | 186187 16 | 41:22.38 | 3:07.37 | 186188 | 200249 17 | 44:30.00 | 1:57.38 | 200250 | 209062 18 | 46:27.38 | 2:09.00 | 209063 | 218737 19 | 48:36.38 | 4:45.12 | 218738 | 240124 20 | 53:21.50 | 1:50.00 | 240125 | 248374 21 | 55:11.50 | 4:51.63 | 248375 | 270262 22 | 60:03.38 | 4:00.50 | 270263 | 288312 23 | 64:04.13 | 3:33.55 | 288313 | 304342 24 | 67:37.68 | 2:04.67 | 304343 | 313709 25 | 69:42.60 | 1:45.40 | 313710 | 321624
Range status and errors
Selected range
Filename F:\Music\Tchaikovsky - Romances (Krasnaya)\CD.wav
Peak level 93.6 % Extraction speed 4.6 X Range quality 100.0 % Test CRC 3C64CBB9 Copy CRC 3C64CBB9 Copy OK
No errors occurred
AccurateRip summary
Track 1 accurately ripped (confidence 1) [AA2AD1CA] (AR v2)Track 2 accurately ripped (confidence 1) [ACA9770E] (AR v2)Track 3 accurately ripped (confidence 1) [0F129BF8] (AR v2)Track 4 accurately ripped (confidence 1) [1E91DDBD] (AR v2)Track 5 accurately ripped (confidence 1) [67A2D46F] (AR v2)Track 6 accurately ripped (confidence 1) [65BA8C7F] (AR v2)Track 7 accurately ripped (confidence 1) [5784CE23] (AR v2)Track 8 accurately ripped (confidence 1) [00978828] (AR v2)Track 9 accurately ripped (confidence 1) [EE9674E5] (AR v2)Track 10 accurately ripped (confidence 1) [538E44C1] (AR v2)Track 11 accurately ripped (confidence 1) [F27A97A8] (AR v2)Track 12 accurately ripped (confidence 1) [02E688DD] (AR v2)Track 13 accurately ripped (confidence 1) [07C09CAC] (AR v2)Track 14 accurately ripped (confidence 1) [C951435B] (AR v2)Track 15 accurately ripped (confidence 1) [E917150A] (AR v2)Track 16 accurately ripped (confidence 1) [B37360B9] (AR v2)Track 17 accurately ripped (confidence 1) [C58AB285] (AR v2)Track 18 accurately ripped (confidence 1) [A536D4ED] (AR v2)Track 19 accurately ripped (confidence 1) [FFF0978F] (AR v2)Track 20 accurately ripped (confidence 1) [8A5932F1] (AR v2)Track 21 accurately ripped (confidence 1) [F9E269A8] (AR v2)Track 22 accurately ripped (confidence 1) [667438CC] (AR v2)Track 23 accurately ripped (confidence 1) [CE7D46F9] (AR v2)Track 24 accurately ripped (confidence 1) [5B73395C] (AR v2)Track 25 accurately ripped (confidence 1) [02F72FE7] (AR v2)
All tracks accurately ripped
End of status report
==== Log checksum 93BD17BC2E7A858F4169733DEF61E17FA74DEEA832409BD00955265D18F51C69 ====

Содержание индексной карты (.CUE)

REM GENRE VocalREM DATE 1994REM DISCID 6F10C019REM COMMENT ExactAudioCopy v1.0b3PERFORMER "Надежда Красная и Вадим Федоровцев"TITLE "Полное собрание романсов - диск 1"FILE "CD.flac" WAVE TRACK 01 AUDIO TITLE "Мой гений, мой ангел, мой друг (Фет)" INDEX 01 00:00:00 TRACK 02 AUDIO TITLE "Песнь Земфиры (Пушкин)" INDEX 00 01:41:38 INDEX 01 01:42:63 TRACK 03 AUDIO TITLE "Mezza notte" INDEX 00 03:16:38 INDEX 01 03:17:13 TRACK 04 AUDIO TITLE "Шесть романсов, соч.6 - No.1: Не верь, мой друг (Толстой)" INDEX 00 05:23:38 INDEX 01 05:25:00 TRACK 05 AUDIO TITLE "No.2: Ни слова, о друг мой (Хартман)" INDEX 00 09:33:38 INDEX 01 09:35:00 TRACK 06 AUDIO TITLE "No.3: И больно, и сладко (Ростопшина)" INDEX 00 12:25:13 INDEX 01 12:27:50 TRACK 07 AUDIO TITLE "No.4: Слеза дрожит (Толстой)" INDEX 00 14:51:63 INDEX 01 14:54:38 TRACK 08 AUDIO TITLE "No.5: Отчего? (Гейне)" INDEX 00 18:08:63 INDEX 01 18:10:38 TRACK 09 AUDIO TITLE "No.6: Нет, только тот, кто знал (Гёте)" INDEX 00 20:56:25 INDEX 01 20:57:00 TRACK 10 AUDIO TITLE "Забыть так скоро (Апухтин)" INDEX 00 23:48:25 INDEX 01 23:51:00 TRACK 11 AUDIO TITLE "Шесть романсов, соч.16 - No.1: Колыбельная (Майков)" INDEX 00 26:57:50 INDEX 01 26:59:00 TRACK 12 AUDIO TITLE "No.2: Погоди! (Греков)" INDEX 00 30:52:38 INDEX 01 30:53:00 TRACK 13 AUDIO TITLE "No.3: Пойми хоть раз (Фет)" INDEX 00 34:11:13 INDEX 01 34:12:00 TRACK 14 AUDIO TITLE "No.4: О, спой же ту песню (Хеманс)" INDEX 00 35:38:63 INDEX 01 35:39:25 TRACK 15 AUDIO TITLE "No.5: Твой образ светлый (Чайковский)" INDEX 00 38:29:63 INDEX 01 38:31:38 TRACK 16 AUDIO TITLE "No.6: Новогреческая песня (Майков)" INDEX 00 41:21:38 INDEX 01 41:22:38 TRACK 17 AUDIO TITLE "Уноси моё сердце (Фет)" INDEX 00 44:29:25 INDEX 01 44:30:00 TRACK 18 AUDIO TITLE "Глазки весны голубые (Гейне)" INDEX 00 46:27:25 INDEX 01 46:27:38 TRACK 19 AUDIO TITLE "Шесть романсов, соч.2 - No.1: Примирение (Щербина)" INDEX 00 48:35:63 INDEX 01 48:36:38 TRACK 20 AUDIO TITLE "No.2: Как над горячею золой (Тютчев)" INDEX 00 53:20:63 INDEX 01 53:21:50 TRACK 21 AUDIO TITLE "No.3: Песнь миньона (Гёте)" INDEX 01 55:11:50 TRACK 22 AUDIO TITLE "No.4: Канарейка (Мей)" INDEX 00 60:01:13 INDEX 01 60:03:38 TRACK 23 AUDIO TITLE "No.5: Я с ней никогда не говорил (Мей)" INDEX 00 64:03:38 INDEX 01 64:04:13 TRACK 24 AUDIO TITLE "No.6: Как наладили: дурак (Мей)" INDEX 00 67:37:13 INDEX 01 67:37:68 TRACK 25 AUDIO TITLE "Хотел бы в единое слово (Гейне)" INDEX 01 69:42:60
-



Показать сообщения:    

Текущее время: 05-Дек 21:40

Часовой пояс: UTC + 3


Вы не можете начинать темы
Вы не можете отвечать на сообщения
Вы не можете редактировать свои сообщения
Вы не можете удалять свои сообщения
Вы не можете голосовать в опросах
Вы не можете прикреплять файлы к сообщениям
Вы не можете скачивать файлы