(Classical) VA - Ave Maria - Божественная музыка (Schubert, Mendelssohn-Bartholdy, Tosti, Britten, Bach, Gounod, Franck, Mozart, Rossini, Saint-Saens, Bruckner, Biebl, Рахманинов, Stanford, Durufle, Verdi, Zarewtius) (3CD) - 2013, FLAC (tracks+.cue)


 

[Цитировать]

Ave Maria - Божественная музыка (3CD)
Жанр: Classical
Страна-производитель диска: Russia
Год издания диска: 2013
Издатель (лейбл): Ридерз Дайджест
Номер по каталогу: HMAM-13
Аудиокодек: FLAC
Тип рипа: tracks+.cue
Битрейт аудио: lossless
Продолжительность: 1:06:27. + 1:06:27. + 1:11:12.
Источник: собственный рип
Наличие сканов в содержимом раздачи: да

CD1 - Ave Maria

01. Ave Maria \ Schubert [0:05:00.38]
02. Ave Maria \ Mendelssohn-Bartholdy [0:07:18.42]
03. Ave Maria \ Tosti [0:03:18.10]
04. A Hymn to the Virgin \ Britten [0:03:35.62]
05. Ave Maria \ Bach/Gounod [0:03:00.27]
06. Ave Maria \ Franck/ar. Von Aarburg [0:03:34.18]
07. Sancta Maria Litaniae Lauretanae \ Mozart [0:07:18.70]
08. Ave Maria \ Rossini [0:05:24.57]
09. Salve Regina A \ Schubert [0:09:42.15]
10. Ave Maria \ Saint-Saens [0:02:08.69]
11. Virga Jesse \ Bruckner [0:03:44.48]
12. Ave Maria \ Bruckner [0:03:20.34]
13. Ave Maria \ Biebl [0:06:22.01]
14. Rejoice, O Virgin, from Vespers \ Rachmaninov [0:02:56.19]

Лог создания рипа

Exact Audio Copy V1.0 beta 3 from 29. August 2011
Отчёт EAC об извлечении, выполненном 17. ноября 2014, 20:28
VA / Ave Maria - Божественная музыка CD1
Дисковод: ASUS DRW-1814BLT Adapter: 4 ID: 0
Режим чтения : ДостоверностьИспользование точного потока : ДаОтключение кэша аудио : ДаИспользование указателей C2 : Нет
Коррекция смещения при чтении : 6Способность читать области Lead-in и Lead-out : НетЗаполнение пропущенных сэмплов тишиной : ДаУдаление блоков с тишиной в начале и конце : НетПри вычислениях CRC использовались нулевые сэмплы : ДаИнтерфейс : Встроенный Win32-интерфейс для Win NT/2000Обработка зазоров : Добавлено к предыдущему треку
Выходной формат : Пользовательский кодировщикВыбранный битрейт : 128 kBit/sКачество : ВысокийДобавление ID3-тега : НетУтилита сжатия : C:\Program Files\Exact Audio Copy\Flac\flac.exeДополнительные параметры : -V -8 -T "Genre=%genre%" -T "Artist=%artist%" -T "Title=%title%" -T "Album=%albumtitle%" -T "Date=%year%" -T "Tracknumber=%tracknr%" -T "Comment=EAC1.0b2 FLAC -8" %source%
TOC извлечённого CD
Трек | Старт | Длительность | Начальный сектор | Конечный сектор --------------------------------------------------------------------- 1 | 0:00.00 | 5:00.38 | 0 | 22537 2 | 5:00.38 | 7:18.42 | 22538 | 55429 3 | 12:19.05 | 3:18.10 | 55430 | 70289 4 | 15:37.15 | 3:35.62 | 70290 | 86476 5 | 19:13.02 | 3:00.27 | 86477 | 100003 6 | 22:13.29 | 3:34.18 | 100004 | 116071 7 | 25:47.47 | 7:18.70 | 116072 | 148991 8 | 33:06.42 | 5:24.57 | 148992 | 173348 9 | 38:31.24 | 9:42.15 | 173349 | 217013 10 | 48:13.39 | 2:08.69 | 217014 | 226682 11 | 50:22.33 | 3:44.48 | 226683 | 243530 12 | 54:07.06 | 3:20.34 | 243531 | 258564 13 | 57:27.40 | 6:22.01 | 258565 | 287215 14 | 63:49.41 | 2:56.19 | 287216 | 300434
Трек 1
Имя файла R:\Раздача 28\VA - Ave Maria - Божественная музыка - 2013 (3CD)\CD1\01 Ave Maria - Schubert.wav
Длина предзазора 0:00:02.00
Пиковый уровень 59.9 % Скорость извлечения 5.6 X Качество трека 100.0 % CRC теста F3141EB9 CRC копии F3141EB9 Трек не обнаружен в базе AccurateRip Копирование... OK
Трек 2
Имя файла R:\Раздача 28\VA - Ave Maria - Божественная музыка - 2013 (3CD)\CD1\02 Ave Maria - Mendelssohn-Bartholdy.wav
Длина предзазора 0:00:01.71
Пиковый уровень 88.9 % Скорость извлечения 5.2 X Качество трека 99.9 % CRC теста FF40A671 CRC копии FF40A671 Трек не обнаружен в базе AccurateRip Копирование... OK
Трек 3
Имя файла R:\Раздача 28\VA - Ave Maria - Божественная музыка - 2013 (3CD)\CD1\03 Ave Maria - Tosti.wav
Длина предзазора 0:00:01.72
Пиковый уровень 35.1 % Скорость извлечения 6.7 X Качество трека 100.0 % CRC теста 3967DD62 CRC копии 3967DD62 Трек не обнаружен в базе AccurateRip Копирование... OK
Трек 4
Имя файла R:\Раздача 28\VA - Ave Maria - Божественная музыка - 2013 (3CD)\CD1\04 A Hymn to the Virgin - Britten.wav
Длина предзазора 0:00:01.71
Пиковый уровень 74.0 % Скорость извлечения 7.0 X Качество трека 100.0 % CRC теста 9180BC00 CRC копии 9180BC00 Трек не обнаружен в базе AccurateRip Копирование... OK
Трек 5
Имя файла R:\Раздача 28\VA - Ave Maria - Божественная музыка - 2013 (3CD)\CD1\05 Ave Maria - Bach,Gounod.wav
Длина предзазора 0:00:01.72
Пиковый уровень 51.9 % Скорость извлечения 7.2 X Качество трека 100.0 % CRC теста AB00751E CRC копии AB00751E Трек не обнаружен в базе AccurateRip Копирование... OK
Трек 6
Имя файла R:\Раздача 28\VA - Ave Maria - Божественная музыка - 2013 (3CD)\CD1\06 Ave Maria - Franck,ar. Von Aarburg.wav
Длина предзазора 0:00:01.71
Пиковый уровень 67.2 % Скорость извлечения 7.7 X Качество трека 100.0 % CRC теста A3426F13 CRC копии A3426F13 Трек не обнаружен в базе AccurateRip Копирование... OK
Трек 7
Имя файла R:\Раздача 28\VA - Ave Maria - Божественная музыка - 2013 (3CD)\CD1\07 Sancta Maria Litaniae Lauretanae - Mozart.wav
Длина предзазора 0:00:01.71
Пиковый уровень 73.8 % Скорость извлечения 8.8 X Качество трека 100.0 % CRC теста 9728D3FF CRC копии 9728D3FF Трек не обнаружен в базе AccurateRip Копирование... OK
Трек 8
Имя файла R:\Раздача 28\VA - Ave Maria - Божественная музыка - 2013 (3CD)\CD1\08 Ave Maria - Rossini.wav
Длина предзазора 0:00:01.72
Пиковый уровень 74.1 % Скорость извлечения 9.2 X Качество трека 100.0 % CRC теста 7A1F6106 CRC копии 7A1F6106 Трек не обнаружен в базе AccurateRip Копирование... OK
Трек 9
Имя файла R:\Раздача 28\VA - Ave Maria - Божественная музыка - 2013 (3CD)\CD1\09 Salve Regina A - Schubert.wav
Длина предзазора 0:00:01.71
Пиковый уровень 81.4 % Скорость извлечения 10.2 X Качество трека 100.0 % CRC теста 985DBF2F CRC копии 985DBF2F Трек не обнаружен в базе AccurateRip Копирование... OK
Трек 10
Имя файла R:\Раздача 28\VA - Ave Maria - Божественная музыка - 2013 (3CD)\CD1\10 Ave Maria - Saint-Saens.wav
Длина предзазора 0:00:01.71
Пиковый уровень 39.8 % Скорость извлечения 8.7 X Качество трека 100.0 % CRC теста 45305ECA CRC копии 45305ECA Трек не обнаружен в базе AccurateRip Копирование... OK
Трек 11
Имя файла R:\Раздача 28\VA - Ave Maria - Божественная музыка - 2013 (3CD)\CD1\11 Virga Jesse - Bruckner.wav
Длина предзазора 0:00:01.71
Пиковый уровень 76.2 % Скорость извлечения 9.9 X Качество трека 100.0 % CRC теста 9F0C77AA CRC копии 9F0C77AA Трек не обнаружен в базе AccurateRip Копирование... OK
Трек 12
Имя файла R:\Раздача 28\VA - Ave Maria - Божественная музыка - 2013 (3CD)\CD1\12 Ave Maria - Bruckner.wav
Длина предзазора 0:00:01.71
Пиковый уровень 64.0 % Скорость извлечения 9.8 X Качество трека 100.0 % CRC теста 4E77884C CRC копии 4E77884C Трек не обнаружен в базе AccurateRip Копирование... OK
Трек 13
Имя файла R:\Раздача 28\VA - Ave Maria - Божественная музыка - 2013 (3CD)\CD1\13 Ave Maria - Biebl.wav
Длина предзазора 0:00:01.71
Пиковый уровень 55.8 % Скорость извлечения 11.0 X Качество трека 100.0 % CRC теста B9B8E4C1 CRC копии B9B8E4C1 Трек не обнаружен в базе AccurateRip Копирование... OK
Трек 14
Имя файла R:\Раздача 28\VA - Ave Maria - Божественная музыка - 2013 (3CD)\CD1\14 Rejoice, O Virgin, from Vespers - Rachmaninov.wav
Длина предзазора 0:00:01.71
Пиковый уровень 99.8 % Скорость извлечения 10.2 X Качество трека 100.0 % CRC теста E8937E0D CRC копии E8937E0D Трек не обнаружен в базе AccurateRip Копирование... OK
Ни одного трека нет в базе AccurateRip
Ошибок не произошло
Конец отчёта
==== Контрольная сумма отчёта 156F48F5CB3A6BF295AA9A461A314C5D9FDBE1597B624CF0B24C70B12508F993 ====

Содержание индексной карты (.CUE)

REM GENRE ClassicalREM DATE 2013REM DISCID CC0FA50EREM COMMENT "ExactAudioCopy v1.0b3"PERFORMER "VA"TITLE "Ave Maria - Божественная музыка CD1"FILE "01 Ave Maria - Schubert.wav" WAVE TRACK 01 AUDIO TITLE "Ave Maria - Schubert" PERFORMER "VA" INDEX 01 00:00:00 TRACK 02 AUDIO TITLE "Ave Maria - Mendelssohn-Bartholdy" PERFORMER "VA" INDEX 00 04:58:42FILE "02 Ave Maria - Mendelssohn-Bartholdy.wav" WAVE INDEX 01 00:00:00 TRACK 03 AUDIO TITLE "Ave Maria - Tosti" PERFORMER "VA" INDEX 00 07:16:45FILE "03 Ave Maria - Tosti.wav" WAVE INDEX 01 00:00:00 TRACK 04 AUDIO TITLE "A Hymn to the Virgin - Britten" PERFORMER "VA" INDEX 00 03:16:14FILE "04 A Hymn to the Virgin - Britten.wav" WAVE INDEX 01 00:00:00 TRACK 05 AUDIO TITLE "Ave Maria - Bach/Gounod" PERFORMER "VA" INDEX 00 03:33:65FILE "05 Ave Maria - Bach,Gounod.wav" WAVE INDEX 01 00:00:00 TRACK 06 AUDIO TITLE "Ave Maria - Franck/ar. Von Aarburg" PERFORMER "VA" INDEX 00 02:58:31FILE "06 Ave Maria - Franck,ar. Von Aarburg.wav" WAVE INDEX 01 00:00:00 TRACK 07 AUDIO TITLE "Sancta Maria Litaniae Lauretanae - Mozart" PERFORMER "VA" INDEX 00 03:32:22FILE "07 Sancta Maria Litaniae Lauretanae - Mozart.wav" WAVE INDEX 01 00:00:00 TRACK 08 AUDIO TITLE "Ave Maria - Rossini" PERFORMER "VA" INDEX 00 07:16:73FILE "08 Ave Maria - Rossini.wav" WAVE INDEX 01 00:00:00 TRACK 09 AUDIO TITLE "Salve Regina A - Schubert" PERFORMER "VA" INDEX 00 05:22:61FILE "09 Salve Regina A - Schubert.wav" WAVE INDEX 01 00:00:00 TRACK 10 AUDIO TITLE "Ave Maria - Saint-Saens" PERFORMER "VA" INDEX 00 09:40:19FILE "10 Ave Maria - Saint-Saens.wav" WAVE INDEX 01 00:00:00 TRACK 11 AUDIO TITLE "Virga Jesse - Bruckner" PERFORMER "VA" INDEX 00 02:06:73FILE "11 Virga Jesse - Bruckner.wav" WAVE INDEX 01 00:00:00 TRACK 12 AUDIO TITLE "Ave Maria - Bruckner" PERFORMER "VA" INDEX 00 03:42:52FILE "12 Ave Maria - Bruckner.wav" WAVE INDEX 01 00:00:00 TRACK 13 AUDIO TITLE "Ave Maria - Biebl" PERFORMER "VA" INDEX 00 03:18:38FILE "13 Ave Maria - Biebl.wav" WAVE INDEX 01 00:00:00 TRACK 14 AUDIO TITLE "Rejoice, O Virgin, from Vespers - Rachmaninov" PERFORMER "VA" INDEX 00 06:20:05FILE "14 Rejoice, O Virgin, from Vespers - Rachmaninov.wav" WAVE INDEX 01 00:00:00

CD2 - Magnificat

01. Magnificat in G \ Stanford [0:03:34.00]
02. Tota pulchra es Maria \ Bruckner [0:04:50.23]
03. Tota pulchra es \ Durufle [0:02:25.02]
04. Laudi alla Vergine Maria \ Verdi [0:05:24.65]
05. Magnificat primi toni \ Zarewtius [0:05:24.62]
06. Magnificat octavi toni \ De Morales [0:07:22.27]
07. Salve Regina \ Hidalgo [0:03:42.04]
08. Ave Maria \ Cornyshe [0:03:56.33]
09. Ave Maria for 8 Voices \ De Victoria [0:04:58.73]
10. Lasst uns Mariam toben \ Monn [0:04:41.23]
11. Ave Maria \ Arcadelt [0:02:14.73]
12. Ave Maria \ De Victoria [0:01:42.07]
13. Salve Regina, RV 618 \ Vivaldi [0:03:44.52]
14. Salve Regina - Andante Molto [0:01:46.50]
15. Ad te clamamus - Allegro [0:04:01.42]
16. Ad te suspiramus - Larghetto [0:01:41.04]
17. Eia ergo - Allegro [0:02:22.08]
18. Et Jesum - Andante [0:02:34.11]

Лог создания рипа

Exact Audio Copy V1.0 beta 3 from 29. August 2011
Отчёт EAC об извлечении, выполненном 17. ноября 2014, 21:25
VA / Ave Maria - Божественная музыка CD2
Дисковод: ASUS DRW-1814BLT Adapter: 4 ID: 0
Режим чтения : ДостоверностьИспользование точного потока : ДаОтключение кэша аудио : ДаИспользование указателей C2 : Нет
Коррекция смещения при чтении : 6Способность читать области Lead-in и Lead-out : НетЗаполнение пропущенных сэмплов тишиной : ДаУдаление блоков с тишиной в начале и конце : НетПри вычислениях CRC использовались нулевые сэмплы : ДаИнтерфейс : Встроенный Win32-интерфейс для Win NT/2000Обработка зазоров : Добавлено к предыдущему треку
Выходной формат : Пользовательский кодировщикВыбранный битрейт : 128 kBit/sКачество : ВысокийДобавление ID3-тега : НетУтилита сжатия : C:\Program Files\Exact Audio Copy\Flac\flac.exeДополнительные параметры : -V -8 -T "Genre=%genre%" -T "Artist=%artist%" -T "Title=%title%" -T "Album=%albumtitle%" -T "Date=%year%" -T "Tracknumber=%tracknr%" -T "Comment=EAC1.0b2 FLAC -8" %source%
TOC извлечённого CD
Трек | Старт | Длительность | Начальный сектор | Конечный сектор --------------------------------------------------------------------- 1 | 0:00.00 | 3:34.00 | 0 | 16049 2 | 3:34.00 | 4:50.23 | 16050 | 37822 3 | 8:24.23 | 2:25.02 | 37823 | 48699 4 | 10:49.25 | 5:24.65 | 48700 | 73064 5 | 16:14.15 | 5:24.62 | 73065 | 97426 6 | 21:39.02 | 7:22.27 | 97427 | 130603 7 | 29:01.29 | 3:42.04 | 130604 | 147257 8 | 32:43.33 | 3:56.33 | 147258 | 164990 9 | 36:39.66 | 4:58.73 | 164991 | 187413 10 | 41:38.64 | 4:41.23 | 187414 | 208511 11 | 46:20.12 | 2:14.73 | 208512 | 218634 12 | 48:35.10 | 1:42.07 | 218635 | 226291 13 | 50:17.17 | 3:44.52 | 226292 | 243143 14 | 54:01.69 | 1:46.50 | 243144 | 251143 15 | 55:48.44 | 4:01.42 | 251144 | 269260 16 | 59:50.11 | 1:41.04 | 269261 | 276839 17 | 61:31.15 | 2:22.08 | 276840 | 287497 18 | 63:53.23 | 2:34.11 | 287498 | 299058
Трек 1
Имя файла R:\Раздача 28\VA - Ave Maria - Божественная музыка - 2013 (3CD)\CD2\01 Magnificat in G - Stanford.wav
Длина предзазора 0:00:02.00
Пиковый уровень 55.3 % Скорость извлечения 5.2 X Качество трека 100.0 % CRC теста 34AD4D1F CRC копии 34AD4D1F Точность не определена (достоверность 1) [DAF8EBC6], AccurateRip вернул [80FE97FB] (AR v2) Копирование... OK
Трек 2
Имя файла R:\Раздача 28\VA - Ave Maria - Божественная музыка - 2013 (3CD)\CD2\02 Tota pulchra es Maria - Bruckner.wav
Длина предзазора 0:00:01.71
Пиковый уровень 92.7 % Скорость извлечения 6.0 X Качество трека 100.0 % CRC теста B556CFC7 CRC копии B556CFC7 Трек не обнаружен в базе AccurateRip Копирование... OK
Трек 3
Имя файла R:\Раздача 28\VA - Ave Maria - Божественная музыка - 2013 (3CD)\CD2\03 Tota pulchra es - Durufle.wav
Длина предзазора 0:00:01.71
Пиковый уровень 72.7 % Скорость извлечения 5.7 X Качество трека 100.0 % CRC теста 2BF09A78 CRC копии 2BF09A78 Трек не обнаружен в базе AccurateRip Копирование... OK
Трек 4
Имя файла R:\Раздача 28\VA - Ave Maria - Божественная музыка - 2013 (3CD)\CD2\04 Laudi alla Vergine Maria - Verdi.wav
Длина предзазора 0:00:01.72
Пиковый уровень 94.8 % Скорость извлечения 7.0 X Качество трека 100.0 % CRC теста 30D523AD CRC копии 30D523AD Точность не определена (достоверность 1) [981D4177], AccurateRip вернул [6B73297C] (AR v2) Копирование... OK
Трек 5
Имя файла R:\Раздача 28\VA - Ave Maria - Божественная музыка - 2013 (3CD)\CD2\05 Magnificat primi toni - Zarewtius.wav
Длина предзазора 0:00:01.71
Пиковый уровень 99.9 % Скорость извлечения 7.6 X Качество трека 100.0 % CRC теста 218A06CB CRC копии 218A06CB Трек не обнаружен в базе AccurateRip Копирование... OK
Трек 6
Имя файла R:\Раздача 28\VA - Ave Maria - Божественная музыка - 2013 (3CD)\CD2\06 Magnificat octavi toni - De Morales.wav
Длина предзазора 0:00:01.72
Пиковый уровень 77.0 % Скорость извлечения 8.4 X Качество трека 100.0 % CRC теста 99D8992C CRC копии 99D8992C Трек не обнаружен в базе AccurateRip Копирование... OK
Трек 7
Имя файла R:\Раздача 28\VA - Ave Maria - Божественная музыка - 2013 (3CD)\CD2\07 Salve Regina - Hidalgo.wav
Длина предзазора 0:00:01.71
Пиковый уровень 61.1 % Скорость извлечения 8.1 X Качество трека 100.0 % CRC теста F135655F CRC копии F135655F Трек не обнаружен в базе AccurateRip Копирование... OK
Трек 8
Имя файла R:\Раздача 28\VA - Ave Maria - Божественная музыка - 2013 (3CD)\CD2\08 Ave Maria - Cornyshe.wav
Длина предзазора 0:00:01.71
Пиковый уровень 92.7 % Скорость извлечения 8.5 X Качество трека 100.0 % CRC теста 046156F9 CRC копии 046156F9 Трек не обнаружен в базе AccurateRip Копирование... OK
Трек 9
Имя файла R:\Раздача 28\VA - Ave Maria - Божественная музыка - 2013 (3CD)\CD2\09 Ave Maria for 8 Voices - De Victoria.wav
Длина предзазора 0:00:01.71
Пиковый уровень 78.2 % Скорость извлечения 9.0 X Качество трека 100.0 % CRC теста 7525C49E CRC копии 7525C49E Трек не обнаружен в базе AccurateRip Копирование... OK
Трек 10
Имя файла R:\Раздача 28\VA - Ave Maria - Божественная музыка - 2013 (3CD)\CD2\10 Lasst uns Mariam toben - Monn.wav
Длина предзазора 0:00:01.72
Пиковый уровень 62.7 % Скорость извлечения 9.2 X Качество трека 100.0 % CRC теста 406F3F2C CRC копии 406F3F2C Трек не обнаружен в базе AccurateRip Копирование... OK
Трек 11
Имя файла R:\Раздача 28\VA - Ave Maria - Божественная музыка - 2013 (3CD)\CD2\11 Ave Maria - Arcadelt.wav
Длина предзазора 0:00:01.72
Пиковый уровень 93.9 % Скорость извлечения 7.8 X Качество трека 100.0 % CRC теста B5784287 CRC копии B5784287 Трек не обнаружен в базе AccurateRip Копирование... OK
Трек 12
Имя файла R:\Раздача 28\VA - Ave Maria - Божественная музыка - 2013 (3CD)\CD2\12 Ave Maria De Victoria.wav
Длина предзазора 0:00:01.72
Пиковый уровень 45.3 % Скорость извлечения 7.6 X Качество трека 100.0 % CRC теста 785204FB CRC копии 785204FB Трек не обнаружен в базе AccurateRip Копирование... OK
Трек 13
Имя файла R:\Раздача 28\VA - Ave Maria - Божественная музыка - 2013 (3CD)\CD2\13 Salve Regina, RV 618 - Vivaldi.wav
Длина предзазора 0:00:01.71
Пиковый уровень 79.6 % Скорость извлечения 9.0 X Качество трека 100.0 % CRC теста 8A1114A0 CRC копии 8A1114A0 Точность не определена (достоверность 1) [DE36BEEF], AccurateRip вернул [D650A05C] (AR v2) Копирование... OK
Трек 14
Имя файла R:\Раздача 28\VA - Ave Maria - Божественная музыка - 2013 (3CD)\CD2\14 Salve Regina - Andante Molto.wav
Длина предзазора 0:00:01.72
Пиковый уровень 38.7 % Скорость извлечения 7.5 X Качество трека 100.0 % CRC теста 81231120 CRC копии 81231120 Точность не определена (достоверность 1) [FA363DC4], AccurateRip вернул [F7877CFE] (AR v2) Копирование... OK
Трек 15
Имя файла R:\Раздача 28\VA - Ave Maria - Божественная музыка - 2013 (3CD)\CD2\15 Ad te clamamus - Allegro.wav
Длина предзазора 0:00:01.71
Пиковый уровень 49.6 % Скорость извлечения 9.8 X Качество трека 100.0 % CRC теста 67D025F6 CRC копии 67D025F6 Точность не определена (достоверность 1) [741BC2E8], AccurateRip вернул [2CE0CF3B] (AR v2) Копирование... OK
Трек 16
Имя файла R:\Раздача 28\VA - Ave Maria - Божественная музыка - 2013 (3CD)\CD2\16 Ad te suspiramus - Larghetto.wav
Длина предзазора 0:00:01.71
Пиковый уровень 40.8 % Скорость извлечения 7.9 X Качество трека 100.0 % CRC теста C34D328E CRC копии C34D328E Точность не определена (достоверность 1) [A134DB09], AccurateRip вернул [7586EBC3] (AR v2) Копирование... OK
Трек 17
Имя файла R:\Раздача 28\VA - Ave Maria - Божественная музыка - 2013 (3CD)\CD2\17 Eia ergo - Allegro.wav
Длина предзазора 0:00:01.72
Пиковый уровень 46.1 % Скорость извлечения 6.7 X Качество трека 99.9 % CRC теста CDBF192B CRC копии CDBF192B Точность не определена (достоверность 1) [B58DE30F], AccurateRip вернул [BA6C3BCD] (AR v2) Копирование... OK
Трек 18
Имя файла R:\Раздача 28\VA - Ave Maria - Божественная музыка - 2013 (3CD)\CD2\18 Et Jesum - Andante.wav
Длина предзазора 0:00:01.71
Пиковый уровень 51.0 % Скорость извлечения 7.3 X Качество трека 100.0 % CRC теста 9FBB146C CRC копии 9FBB146C Точность не определена (достоверность 1) [1311A42C], AccurateRip вернул [4D985024] (AR v2) Копирование... OK
8 трек(и) не удалось проверить на точность10 трек(и) не содержатся в базе AccurateRip
Ни один трек не прошёл проверки на точностьВ вашей базе может быть иной вариант штамповки диска
Ошибок не произошло
Конец отчёта
==== Контрольная сумма отчёта EECCE054CAA7EE1B19F55A204774370AB609B77251814FC95204D64F59D778F4 ====
]

Содержание индексной карты (.CUE)

REM GENRE ClassicalREM DATE 2013REM DISCID F20F9312REM COMMENT "ExactAudioCopy v1.0b3"PERFORMER "VA"TITLE "Ave Maria - Божественная музыка CD2"FILE "01 Magnificat in G - Stanford.wav" WAVE TRACK 01 AUDIO TITLE "Magnificat in G - Stanford" PERFORMER "VA" INDEX 01 00:00:00 TRACK 02 AUDIO TITLE "Tota pulchra es Maria - Bruckner" PERFORMER "VA" INDEX 00 03:32:04FILE "02 Tota pulchra es Maria - Bruckner.wav" WAVE INDEX 01 00:00:00 TRACK 03 AUDIO TITLE "Tota pulchra es - Durufle" PERFORMER "VA" INDEX 00 04:48:27FILE "03 Tota pulchra es - Durufle.wav" WAVE INDEX 01 00:00:00 TRACK 04 AUDIO TITLE "Laudi alla Vergine Maria - Verdi" PERFORMER "VA" INDEX 00 02:23:05FILE "04 Laudi alla Vergine Maria - Verdi.wav" WAVE INDEX 01 00:00:00 TRACK 05 AUDIO TITLE "Magnificat primi toni - Zarewtius" PERFORMER "VA" INDEX 00 05:22:69FILE "05 Magnificat primi toni - Zarewtius.wav" WAVE INDEX 01 00:00:00 TRACK 06 AUDIO TITLE "Magnificat octavi toni - De Morales" PERFORMER "VA" INDEX 00 05:22:65FILE "06 Magnificat octavi toni - De Morales.wav" WAVE INDEX 01 00:00:00 TRACK 07 AUDIO TITLE "Salve Regina - Hidalgo" PERFORMER "VA" INDEX 00 07:20:31FILE "07 Salve Regina - Hidalgo.wav" WAVE INDEX 01 00:00:00 TRACK 08 AUDIO TITLE "Ave Maria - Cornyshe" PERFORMER "VA" INDEX 00 03:40:08FILE "08 Ave Maria - Cornyshe.wav" WAVE INDEX 01 00:00:00 TRACK 09 AUDIO TITLE "Ave Maria for 8 Voices - De Victoria" PERFORMER "VA" INDEX 00 03:54:37FILE "09 Ave Maria for 8 Voices - De Victoria.wav" WAVE INDEX 01 00:00:00 TRACK 10 AUDIO TITLE "Lasst uns Mariam toben - Monn" PERFORMER "VA" INDEX 00 04:57:01FILE "10 Lasst uns Mariam toben - Monn.wav" WAVE INDEX 01 00:00:00 TRACK 11 AUDIO TITLE " Ave Maria - Arcadelt" PERFORMER "VA" INDEX 00 04:39:26FILE "11 Ave Maria - Arcadelt.wav" WAVE INDEX 01 00:00:00 TRACK 12 AUDIO TITLE "Ave Maria De Victoria" PERFORMER "VA" INDEX 00 02:13:01FILE "12 Ave Maria De Victoria.wav" WAVE INDEX 01 00:00:00 TRACK 13 AUDIO TITLE "Salve Regina, RV 618 - Vivaldi" PERFORMER "VA" INDEX 00 01:40:11FILE "13 Salve Regina, RV 618 - Vivaldi.wav" WAVE INDEX 01 00:00:00 TRACK 14 AUDIO TITLE "Salve Regina - Andante Molto" PERFORMER "VA" INDEX 00 03:42:55FILE "14 Salve Regina - Andante Molto.wav" WAVE INDEX 01 00:00:00 TRACK 15 AUDIO TITLE "Ad te clamamus - Allegro" PERFORMER "VA" INDEX 00 01:44:54FILE "15 Ad te clamamus - Allegro.wav" WAVE INDEX 01 00:00:00 TRACK 16 AUDIO TITLE "Ad te suspiramus - Larghetto" PERFORMER "VA" INDEX 00 03:59:46FILE "16 Ad te suspiramus - Larghetto.wav" WAVE INDEX 01 00:00:00 TRACK 17 AUDIO TITLE "Eia ergo - Allegro" PERFORMER "VA" INDEX 00 01:39:07FILE "17 Eia ergo - Allegro.wav" WAVE INDEX 01 00:00:00 TRACK 18 AUDIO TITLE "Et Jesum - Andante" PERFORMER "VA" INDEX 00 02:20:12FILE "18 Et Jesum - Andante.wav" WAVE INDEX 01 00:00:00

CD3 - Stabat Mater

01. Stabat Mater in F Minor, RV 621 \ Vivaldi [0:03:25.66]
02. Stabat Maner - Largo [0:02:18.38]
03. Cuius animam - Adagissimo [0:01:47.52]
04. O quam tristis - Andante [0:03:17.46]
05. Quis est homo - Largo [0:02:20.22]
06. Quis non posset - Adagissimo [0:01:48.18]
07. Pro peccatis - Andante [0:03:14.42]
08. Eja mater - Largo [0:01:55.69]
09. Fac ut ardeat - Lento [0:00:57.51]
10. Amen - Allegro [0:09:34.19]
11. Stabat Mater \ Gouvi [0:05:17.15]
12. Eia Mater [0:07:40.46]
13. Fac me flere [0:02:16.00]
14. Stabat Mater \ Haydn [0:06:41.43]
15. Stabat Mater Dolorosa - Largo [0:02:24.16]
16. Quis est homo - Lento [0:07:40.62]
17. Quis non posset - Moderato [0:03:00.51]
18. Pro peccatis suae gentis - Allegro ma non troppo [0:05:30.20]

Лог создания рипа

Exact Audio Copy V1.0 beta 3 from 29. August 2011
Отчёт EAC об извлечении, выполненном 17. ноября 2014, 22:05
VA / Ave Maria - Божественная музыка CD3
Дисковод: ASUS DRW-1814BLT Adapter: 4 ID: 0
Режим чтения : ДостоверностьИспользование точного потока : ДаОтключение кэша аудио : ДаИспользование указателей C2 : Нет
Коррекция смещения при чтении : 6Способность читать области Lead-in и Lead-out : НетЗаполнение пропущенных сэмплов тишиной : ДаУдаление блоков с тишиной в начале и конце : НетПри вычислениях CRC использовались нулевые сэмплы : ДаИнтерфейс : Встроенный Win32-интерфейс для Win NT/2000Обработка зазоров : Добавлено к предыдущему треку
Выходной формат : Пользовательский кодировщикВыбранный битрейт : 128 kBit/sКачество : ВысокийДобавление ID3-тега : НетУтилита сжатия : C:\Program Files\Exact Audio Copy\Flac\flac.exeДополнительные параметры : -V -8 -T "Genre=%genre%" -T "Artist=%artist%" -T "Title=%title%" -T "Album=%albumtitle%" -T "Date=%year%" -T "Tracknumber=%tracknr%" -T "Comment=EAC1.0b2 FLAC -8" %source%
TOC извлечённого CD
Трек | Старт | Длительность | Начальный сектор | Конечный сектор --------------------------------------------------------------------- 1 | 0:00.00 | 3:25.66 | 0 | 15440 2 | 3:25.66 | 2:18.38 | 15441 | 25828 3 | 5:44.29 | 1:47.52 | 25829 | 33905 4 | 7:32.06 | 3:17.46 | 33906 | 48726 5 | 10:49.52 | 2:20.22 | 48727 | 59248 6 | 13:09.74 | 1:48.18 | 59249 | 67366 7 | 14:58.17 | 3:14.42 | 67367 | 81958 8 | 18:12.59 | 1:55.69 | 81959 | 90652 9 | 20:08.53 | 0:57.51 | 90653 | 94978 10 | 21:06.29 | 9:34.19 | 94979 | 138047 11 | 30:40.48 | 5:17.15 | 138048 | 161837 12 | 35:57.63 | 7:40.46 | 161838 | 196383 13 | 43:38.34 | 2:16.00 | 196384 | 206583 14 | 45:54.34 | 6:41.43 | 206584 | 236701 15 | 52:36.02 | 2:24.16 | 236702 | 247517 16 | 55:00.18 | 7:40.62 | 247518 | 282079 17 | 62:41.05 | 3:00.51 | 282080 | 295630 18 | 65:41.56 | 5:30.20 | 295631 | 320400
Трек 1
Имя файла R:\Раздача 28\VA - Ave Maria - Божественная музыка - 2013 (3CD)\CD3\01 Stabat Mater in F Minor, RV 621 - Vivaldi.wav
Длина предзазора 0:00:02.00
Пиковый уровень 53.4 % Скорость извлечения 5.6 X Качество трека 100.0 % CRC теста 6D4C41C6 CRC копии 6D4C41C6 Точность не определена (достоверность 1) [C7B46F54], AccurateRip вернул [9006AAF4] (AR v2) Копирование... OK
Трек 2
Имя файла R:\Раздача 28\VA - Ave Maria - Божественная музыка - 2013 (3CD)\CD3\02 Stabat Maner - Largo.wav
Длина предзазора 0:00:01.72
Пиковый уровень 34.3 % Скорость извлечения 5.6 X Качество трека 100.0 % CRC теста 493F2BBF CRC копии 493F2BBF Точность не определена (достоверность 1) [B9117BF1], AccurateRip вернул [56F627F3] (AR v2) Копирование... OK
Трек 3
Имя файла R:\Раздача 28\VA - Ave Maria - Божественная музыка - 2013 (3CD)\CD3\03 Cuius animam - Adagissimo.wav
Длина предзазора 0:00:01.71
Пиковый уровень 53.9 % Скорость извлечения 5.4 X Качество трека 100.0 % CRC теста 421B1D2B CRC копии 421B1D2B Точность не определена (достоверность 1) [0C353378], AccurateRip вернул [CE333B1B] (AR v2) Копирование... OK
Трек 4
Имя файла R:\Раздача 28\VA - Ave Maria - Божественная музыка - 2013 (3CD)\CD3\04 O quam tristis - Andante.wav
Длина предзазора 0:00:01.72
Пиковый уровень 50.5 % Скорость извлечения 6.5 X Качество трека 100.0 % CRC теста 83FC353A CRC копии 83FC353A Точность не определена (достоверность 1) [7B457050], AccurateRip вернул [14C3EF14] (AR v2) Копирование... OK
Трек 5
Имя файла R:\Раздача 28\VA - Ave Maria - Божественная музыка - 2013 (3CD)\CD3\05 Quis est homo - Largo.wav
Длина предзазора 0:00:01.71
Пиковый уровень 34.4 % Скорость извлечения 6.3 X Качество трека 100.0 % CRC теста 2C5C9B32 CRC копии 2C5C9B32 Точность не определена (достоверность 1) [051CFF82], AccurateRip вернул [8B3A66AA] (AR v2) Копирование... OK
Трек 6
Имя файла R:\Раздача 28\VA - Ave Maria - Божественная музыка - 2013 (3CD)\CD3\06 Quis non posset - Adagissimo.wav
Длина предзазора 0:00:01.71
Пиковый уровень 50.8 % Скорость извлечения 4.1 X Качество трека 99.9 % CRC теста 25A68FA7 CRC копии 25A68FA7 Точное извлечение (достоверность 1) [8F27CB55] (AR v1) Копирование... OK
Трек 7
Имя файла R:\Раздача 28\VA - Ave Maria - Божественная музыка - 2013 (3CD)\CD3\07 Pro peccatis - Andante.wav
Длина предзазора 0:00:01.72
Пиковый уровень 43.0 % Скорость извлечения 5.3 X Качество трека 99.9 % CRC теста 7403F576 CRC копии 7403F576 Точное извлечение (достоверность 1) [55E273C8] (AR v1) Копирование... OK
Трек 8
Имя файла R:\Раздача 28\VA - Ave Maria - Божественная музыка - 2013 (3CD)\CD3\08 Eja mater - Largo.wav
Длина предзазора 0:00:01.72
Пиковый уровень 53.7 % Скорость извлечения 5.7 X Качество трека 100.0 % CRC теста EE751D9C CRC копии EE751D9C Точное извлечение (достоверность 1) [0A729313] (AR v1) Копирование... OK
Трек 9
Имя файла R:\Раздача 28\VA - Ave Maria - Божественная музыка - 2013 (3CD)\CD3\09 Fac ut ardeat - Lento.wav
Длина предзазора 0:00:01.71
Пиковый уровень 54.0 % Скорость извлечения 5.4 X Качество трека 100.0 % CRC теста 195EC632 CRC копии 195EC632 Точное извлечение (достоверность 1) [64551A4A] (AR v1) Копирование... OK
Трек 10
Имя файла R:\Раздача 28\VA - Ave Maria - Божественная музыка - 2013 (3CD)\CD3\10 Amen - Allegro.wav
Длина предзазора 0:00:01.71
Пиковый уровень 84.5 % Скорость извлечения 9.1 X Качество трека 100.0 % CRC теста 3795869D CRC копии 3795869D Точность не определена (достоверность 1) [9DD3D259], AccurateRip вернул [C01A8EAF] (AR v2) Копирование... OK
Трек 11
Имя файла R:\Раздача 28\VA - Ave Maria - Божественная музыка - 2013 (3CD)\CD3\11 Stabat Mater - Gouvi.wav
Длина предзазора 0:00:01.71
Пиковый уровень 95.6 % Скорость извлечения 9.4 X Качество трека 100.0 % CRC теста 6A6430EB CRC копии 6A6430EB Точность не определена (достоверность 1) [1842706C], AccurateRip вернул [306A0558] (AR v2) Копирование... OK
Трек 12
Имя файла R:\Раздача 28\VA - Ave Maria - Божественная музыка - 2013 (3CD)\CD3\12 Eia Mater.wav
Длина предзазора 0:00:01.71
Пиковый уровень 79.3 % Скорость извлечения 10.2 X Качество трека 100.0 % CRC теста B7341C75 CRC копии B7341C75 Трек не обнаружен в базе AccurateRip Копирование... OK
Трек 13
Имя файла R:\Раздача 28\VA - Ave Maria - Божественная музыка - 2013 (3CD)\CD3\13 Fac me flere.wav
Длина предзазора 0:00:01.71
Пиковый уровень 99.8 % Скорость извлечения 8.9 X Качество трека 100.0 % CRC теста 00A8C780 CRC копии 00A8C780 Трек не обнаружен в базе AccurateRip Копирование... OK
Трек 14
Имя файла R:\Раздача 28\VA - Ave Maria - Божественная музыка - 2013 (3CD)\CD3\14 Stabat Mater - Haydn.wav
Длина предзазора 0:00:01.71
Пиковый уровень 90.9 % Скорость извлечения 10.8 X Качество трека 100.0 % CRC теста BA569CFB CRC копии BA569CFB Трек не обнаружен в базе AccurateRip Копирование... OK
Трек 15
Имя файла R:\Раздача 28\VA - Ave Maria - Божественная музыка - 2013 (3CD)\CD3\15 Stabat Mater Dolorosa - Largo.wav
Длина предзазора 0:00:01.72
Пиковый уровень 46.8 % Скорость извлечения 9.7 X Качество трека 100.0 % CRC теста AEF8B0F0 CRC копии AEF8B0F0 Трек не обнаружен в базе AccurateRip Копирование... OK
Трек 16
Имя файла R:\Раздача 28\VA - Ave Maria - Божественная музыка - 2013 (3CD)\CD3\16 Quis est homo - Lento.wav
Длина предзазора 0:00:01.71
Пиковый уровень 97.1 % Скорость извлечения 9.1 X Качество трека 99.9 % CRC теста 093EA01B CRC копии 093EA01B Трек не обнаружен в базе AccurateRip Копирование... OK
Трек 17
Имя файла R:\Раздача 28\VA - Ave Maria - Божественная музыка - 2013 (3CD)\CD3\17 Quis non posset - Moderato.wav
Длина предзазора 0:00:01.72
Пиковый уровень 50.6 % Скорость извлечения 10.6 X Качество трека 100.0 % CRC теста FADAE4F0 CRC копии FADAE4F0 Трек не обнаружен в базе AccurateRip Копирование... OK
Трек 18
Имя файла R:\Раздача 28\VA - Ave Maria - Божественная музыка - 2013 (3CD)\CD3\18 Pro peccatis suae gentis - Allegro ma non troppo.wav
Длина предзазора 0:00:01.71
Пиковый уровень 83.7 % Скорость извлечения 11.9 X Качество трека 100.0 % CRC теста 75B03F7D CRC копии 75B03F7D Трек не обнаружен в базе AccurateRip Копирование... OK
4 трек(и) скопированы точно 7 трек(и) не удалось проверить на точность 7 трек(и) не содержатся в базе AccurateRip
Некоторые треки не прошли проверку на точность
Ошибок не произошло
Конец отчёта
==== Контрольная сумма отчёта AEBF2614A96A92210B95255D2598718CFA72AF80E648AF6E011688A25B0F1C1D ====

Содержание индексной карты (.CUE)

REM GENRE ClassicalREM DATE 2013REM DISCID EB10B012REM COMMENT "ExactAudioCopy v1.0b3"PERFORMER "VA"TITLE "Ave Maria - Божественная музыка CD3"FILE "01 Stabat Mater in F Minor, RV 621 - Vivaldi.wav" WAVE TRACK 01 AUDIO TITLE "Stabat Mater in F Minor, RV 621 - Vivaldi" PERFORMER "VA" INDEX 01 00:00:00 TRACK 02 AUDIO TITLE "Stabat Maner - Largo" PERFORMER "VA" INDEX 00 03:23:69FILE "02 Stabat Maner - Largo.wav" WAVE INDEX 01 00:00:00 TRACK 03 AUDIO TITLE "Cuius animam - Adagissimo" PERFORMER "VA" INDEX 00 02:16:42FILE "03 Cuius animam - Adagissimo.wav" WAVE INDEX 01 00:00:00 TRACK 04 AUDIO TITLE "O quam tristis - Andante" PERFORMER "VA" INDEX 00 01:45:55FILE "04 O quam tristis - Andante.wav" WAVE INDEX 01 00:00:00 TRACK 05 AUDIO TITLE "Quis est homo - Largo" PERFORMER "VA" INDEX 00 03:15:50FILE "05 Quis est homo - Largo.wav" WAVE INDEX 01 00:00:00 TRACK 06 AUDIO TITLE "Quis non posset - Adagissimo" PERFORMER "VA" INDEX 00 02:18:26FILE "06 Quis non posset - Adagissimo.wav" WAVE INDEX 01 00:00:00 TRACK 07 AUDIO TITLE "Pro peccatis - Andante" PERFORMER "VA" INDEX 00 01:46:21FILE "07 Pro peccatis - Andante.wav" WAVE INDEX 01 00:00:00 TRACK 08 AUDIO TITLE "Eja mater - Largo" PERFORMER "VA" INDEX 00 03:12:45FILE "08 Eja mater - Largo.wav" WAVE INDEX 01 00:00:00 TRACK 09 AUDIO TITLE "Fac ut ardeat - Lento" PERFORMER "VA" INDEX 00 01:53:73FILE "09 Fac ut ardeat - Lento.wav" WAVE INDEX 01 00:00:00 TRACK 10 AUDIO TITLE "Amen - Allegro" PERFORMER "VA" INDEX 00 00:55:55FILE "10 Amen - Allegro.wav" WAVE INDEX 01 00:00:00 TRACK 11 AUDIO TITLE "Stabat Mater - Gouvi" PERFORMER "VA" INDEX 00 09:32:23FILE "11 Stabat Mater - Gouvi.wav" WAVE INDEX 01 00:00:00 TRACK 12 AUDIO TITLE "Eia Mater" PERFORMER "VA" INDEX 00 05:15:19FILE "12 Eia Mater.wav" WAVE INDEX 01 00:00:00 TRACK 13 AUDIO TITLE "Fac me flere" PERFORMER "VA" INDEX 00 07:38:50FILE "13 Fac me flere.wav" WAVE INDEX 01 00:00:00 TRACK 14 AUDIO TITLE "Stabat Mater - Haydn" PERFORMER "VA" INDEX 00 02:14:04FILE "14 Stabat Mater - Haydn.wav" WAVE INDEX 01 00:00:00 TRACK 15 AUDIO TITLE "Stabat Mater Dolorosa - Largo" PERFORMER "VA" INDEX 00 06:39:46FILE "15 Stabat Mater Dolorosa - Largo.wav" WAVE INDEX 01 00:00:00 TRACK 16 AUDIO TITLE "Quis est homo - Lento" PERFORMER "VA" INDEX 00 02:22:20FILE "16 Quis est homo - Lento.wav" WAVE INDEX 01 00:00:00 TRACK 17 AUDIO TITLE "Quis non posset - Moderato" PERFORMER "VA" INDEX 00 07:38:65FILE "17 Quis non posset - Moderato.wav" WAVE INDEX 01 00:00:00 TRACK 18 AUDIO TITLE "Pro peccatis suae gentis - Allegro ma non troppo" PERFORMER "VA" INDEX 00 02:58:55FILE "18 Pro peccatis suae gentis - Allegro ma non troppo.wav" WAVE INDEX 01 00:00:00
Исполнители:
Исполнители не указаны.



Показать сообщения:    

Текущее время: 05-Дек 01:26

Часовой пояс: UTC + 3


Вы не можете начинать темы
Вы не можете отвечать на сообщения
Вы не можете редактировать свои сообщения
Вы не можете удалять свои сообщения
Вы не можете голосовать в опросах
Вы не можете прикреплять файлы к сообщениям
Вы не можете скачивать файлы